Разрядка / La detente / La détente (Пьер Дюко / Pierre Ducos, Бертран Бей / Bertrand Bey) [2011, Франция, 3D анимация, антивоенная сатира, короткий метр, DVB]


 

[Цитировать]

Разрядка
La détente- Страна: Франция
Жанр: 3D анимация, антивоенная сатира, короткий метр
Год выпуска: 2011
Продолжительность: 00:07:58
Перевод: Не требуется
Cубтитры: нет
Оригинальная аудиодорожка: музыкальное сопровождение
Режиссер: Пьер Дюко / Pierre Ducos, Бертран Бей / Bertrand Bey
В ролях: Ромэн Лапер / Romain Lapeire
Описание: Французский солдат в окопе на полях I Мировой войны парализован страхом. Его мозг отключается от реальности и уходит в мир, где войну ведут игрушечные солдатики.
Доп. информация: Собственная запись со спутника (канал TV5MONDE).
Награды: Специальный приз жюри Les Perceides 2011; Специальный приз жюри IAF Istanbul 2011; приз за лучший анимационный фильм Sapporo Film Festival 2011; приз View Awards 2011 за лучший контекстный фильм; награда Best of Show Awards – SIGGRAPH Asia 2011; приз жюри Off courts Trouville 2011; приз детского жюри Festival de Bruz 2011; еще 10 наград МКФ.
Информация: http://www.imdb.com/title/tt2048791
Сэмпл: http://multi-up.com/809896
Качество видео: DVB
Формат видео: MPEG-PS
Видео: MPEG Video 2, 720x576@1024x576 (16:9), 25 fps, ~2821 kbps avg, 0.272 bit/pixel
Аудио: 48 kHz, MPEG Audio 2, 2 ch, ~192.00 kbps avg

MediaInfo

Полное имя                               : H:\My Torrents\[apreder]MINI_MOVIE_008\[apreder]MM_La_detente(2011)DVB.mpg
Формат : MPEG-PS
Размер файла : 175 Мбайт
Продолжительность : 7 м. 58 с.
Режим общего битрейта : Переменный
Общий поток : 3074 Кбит/сек
Видео
Идентификатор : 224 (0xE0)
Формат : MPEG Video
Версия формата : Version 2
Профиль формата : Main@Main
Параметр BVOP формата : Да
Параметр матрицы формата : Выборочная
Параметр GOP формата : M=3, N=24
Продолжительность : 7 м. 58 с.
Вид битрейта : Переменный
Битрейт : 2821 Кбит/сек
Ширина : 720 пикселей
Высота : 576 пикселей
Соотношение сторон : 16:9
Частота кадров : 25,000 кадров/сек
Стандарт вещания : PAL
Цветовое пространство : YUV
Субдискретизация насыщенности : 4:2:0
Битовая глубина : 8 бит
Тип развёртки : Прогрессивная
Порядок развёртки : Верхнее поле первое
Метод сжатия : С потерями
Бит/(Пиксели*Кадры) : 0.272
Размер потока : 161 Мбайт (92%)
Аудио
Идентификатор : 192 (0xC0)
Формат : MPEG Audio
Версия формата : Version 1
Профиль формата : Layer 2
Продолжительность : 7 м. 58 с.
Вид битрейта : Постоянный
Битрейт : 192 Кбит/сек
Каналы : 2 канала
Частота : 48,0 КГц
Метод сжатия : С потерями
Размер потока : 11,0 Мбайт (6%)

Скриншот c названием фильма

Скриншоты


Скриншоты анаморфированные


-536/518√



Показать сообщения:    

Текущее время: 02-Дек 23:11

Часовой пояс: UTC + 3


Вы не можете начинать темы
Вы не можете отвечать на сообщения
Вы не можете редактировать свои сообщения
Вы не можете удалять свои сообщения
Вы не можете голосовать в опросах
Вы не можете прикреплять файлы к сообщениям
Вы не можете скачивать файлы