Две пары (Алексей Храмцов, Алексей Савенко) [2008, Россия, романтическая комедия, анимация, короткий метр, DVB]


Статистика раздачи [Обновить пиров]
Размер:  249 MB   |    Зарегистрирован:  8 месяцев 22 дня   |    Скачан:  0 раз

Полного источника не было: Никогда

 
   
 
 
 

[Цитировать]

Две пары- Страна: Россия
Жанр: романтическая комедия, анимация, короткий метр
Год выпуска: 2008
Продолжительность: 00:09:51
Перевод: Не требуется
Cубтитры: нет
Режиссер: Алексей Храмцов, Алексей Савенко
В ролях: Юлия Белозерова, Алексей Храмцов
Описание: Фильм показан в разделе "Короткий метр на "Дожде". Вступительное слово Ольги Шакиной.
Эта лента – не вполне фильм, не вполне мультфильм. Речь тут идет о влюбленных парах обуви, которые рвутся друг к другу, одеты ли они на хозяйские ноги, или стоят на полке. Кадры обработаны под ретро: ботинки не разговорчивы, поэтому из их отношений получается идеальное немое кино, что создает дополнительный уровень условности, который позволяет нам воспринимать происходящее, как чистую сказку.
Доп. информация: Собственная запись со спутника (канал "Дождь").
Награда: приз за инновации в кино Первого Всероссийского фестиваля короткометражного авторского кино "АРТКИНО" 2008.
Сэмпл: http://multi-up.com/815389
Качество видео: DVB
Формат видео: MPEG-PS
Видео: MPEG Video 2, 720x576@1024x576 (16:9), 25 fps, ~3265 kbps avg, 0.315 bit/pixel
Аудио: 48 kHz, MPEG Audio 2, 2 ch, ~192.00 kbps avg

MediaInfo

Полное имя                               : H:\My Torrents\[apreder]MINI_MOVIE_008\[apreder]MM_Dve_pary(2008)DVB.mpg
Формат : MPEG-PS
Размер файла : 249 Мбайт
Продолжительность : 9 м. 51 с.
Режим общего битрейта : Переменный
Общий поток : 3527 Кбит/сек
Видео
Идентификатор : 224 (0xE0)
Формат : MPEG Video
Версия формата : Version 2
Профиль формата : Main@Main
Параметр BVOP формата : Да
Параметр матрицы формата : Выборочная
Параметр GOP формата : M=3, N=24
Продолжительность : 9 м. 51 с.
Вид битрейта : Переменный
Битрейт : 3265 Кбит/сек
Ширина : 720 пикселей
Высота : 576 пикселей
Соотношение сторон : 16:9
Частота кадров : 25,000 кадров/сек
Стандарт вещания : PAL
Цветовое пространство : YUV
Субдискретизация насыщенности : 4:2:0
Битовая глубина : 8 бит
Тип развёртки : Прогрессивная
Порядок развёртки : Верхнее поле первое
Метод сжатия : С потерями
Бит/(Пиксели*Кадры) : 0.315
Размер потока : 230 Мбайт (93%)
Аудио
Идентификатор : 192 (0xC0)
Формат : MPEG Audio
Версия формата : Version 1
Профиль формата : Layer 2
Продолжительность : 9 м. 51 с.
Вид битрейта : Постоянный
Битрейт : 192 Кбит/сек
Каналы : 2 канала
Частота : 48,0 КГц
Метод сжатия : С потерями
Размер потока : 13,5 Мбайт (5%)

Скриншот c названием фильма

Скриншоты

Скриншоты анаморфированные

-560/542√
[teatrix.ru].t15074.torrent 
Торрент: Зарегистрирован [ 2016-03-14 00:50 ] · 6A4DC69E3040542D0C8474165D99718515296217

Скачать .torrent

Скачать

20 KB

Статус: проверено
Скачан: 0 раз
Размер: 249 MB
terms.php



Быстрый ответ

Имя:

      
Для отправки сообщений необходимо включить JavaScript
Показать сообщения:    

Текущее время: 05-Дек 15:34

Часовой пояс: UTC + 3


Вы можете начинать темы
Вы можете отвечать на сообщения
Вы не можете редактировать свои сообщения
Вы не можете удалять свои сообщения
Вы не можете голосовать в опросах
Вы не можете прикреплять файлы к сообщениям
Вы можете скачивать файлы