Приют комедиантов. Выпуск 39. Наши за границей (Сергей Варновский) [2013, Капустник, SATRip]


Статистика раздачи [Обновить пиров]
Размер:  1.1 GB   |    Зарегистрирован:  8 месяцев 25 дней   |    Скачан:  0 раз

Полного источника не было: Никогда

Личеров:  26  [  0 KB/s  ]   Подробная статистика пиров
 
   
 
 
 

[Цитировать]

Приют комедиантов. Выпуск 39. Наши за границей
Жанр: Капустник
Производство: ООО "Эксклюзив ТВ".
Год выпуска: 2013
Продолжительность: 01:29:57
Режиссёр: Сергей Варновский
Ведущие: Екатерина Уфимцева, Михаил Швыдкой.
В ролях: Екатерина Семёнова, Пётр Красилов, Михаил Борисов, Александр Пашутин, Лариса Рубальская, Сергей Колесников, Андрей Носков, Оскар Кучера, Сергей Барышев, Михаил Горевой, Александра Захарова, Андрей Ильин, Иосиф Райхельгауз, Анна Терехова, Наталья Громушкина, Евгений Меньшов и другие.
Описание: "Наши за границей". На западе всегда высоко ценились таланты советских артистов, их охотно приглашали на гастроли, встречали и провожали бурными овациями.
При этом сами деятели отечественной культуры на гастролях за границей чувствовали себя чудовищно униженно с точки зрения финансовой обеспеченности, вели нищенское существование, экономили на чём могли. В артистических кругах по этому поводу даже ходила присказка: "Тяжела и неказиста жизнь советского артиста". Михаил Борисов прекрасно помнит те времена, когда артисты ездили за границу со своими консервами и кипятильниками. С мощными кипятильниками в фешенебельных номерах иностранных гостиниц случалось немало казусов. Об одном из них расскажет Сергей Колесников.
Иногда, чтобы не тратить на питание ценную валюту, артисты пускались на разные ухищрения, прибегали к мелкому бартеру. Андрей Ильин и Екатерина Семёнова расскажут о том, как во время своих первых гастролей за рубеж пытались совместить роли артистов и бизнесменов.
Впрочем, воспоминания были не только веселыми. К примеру, знаете ли вы, что театральная труппа под руководством Иосифа Райхельгауза дважды гастролировала по городам Ирана, играя русскую классику под дулом автоматов?
Доп. информация:
Премьерный телеэфир 18 января 2013 г.
Семпл: http://multi-up.com/819656
Качество видео: SATRip
Формат видео: AVI
Видео: 704x528 (1.33:1), 25 fps, XviD build 50 ~1558 kbps avg, 0.17 bit/pixel
Аудио: 48 kHz, MPEG Layer 3, 2 ch, ~192.00 kbps avg

MediaInfo

Общее
Полное имя : H:\Торренты и скачки\39.Prijut.komediantov.Nashi.Za.Granitsej.Satrip.by.igor0mr.avi
Формат : AVI
Формат/Информация : Audio Video Interleave
Профиль формата : OpenDML
Размер файла : 1,10 Гбайт
Продолжительность : 1 ч. 29 м.
Общий поток : 1758 Кбит/сек
Программа кодирования : MEncoder SVN-r33883(20110719-gcc4.5.2)
Библиотека кодирования : MPlayer
Видео
Идентификатор : 0
Формат : MPEG-4 Visual
Профиль формата : Advanced Simple@L5
Параметр BVOP формата : 2
Параметр QPel формата : Нет
Параметр GMC формата : Без точки перехода
Параметр матрицы формата : Default (H.263)
Идентификатор кодека : XVID
Идентификатор кодека/Подсказка : XviD
Продолжительность : 1 ч. 29 м.
Битрейт : 1550 Кбит/сек
Ширина : 704 пикселя
Высота : 528 пикселей
Соотношение сторон : 4:3
Соотношение сторон в оригинале : 4:3
Частота кадров : 25,000 кадров/сек
Цветовое пространство : YUV
Субдискретизация насыщенности : 4:2:0
Битовая глубина : 8 бит
Тип развёртки : Прогрессивная
Метод сжатия : С потерями
Бит/(Пиксели*Кадры) : 0.167
Размер потока : 997 Мбайт (88%)
Библиотека кодирования : XviD 1.2.1 (UTC 2008-12-04)
Аудио
Идентификатор : 1
Формат : MPEG Audio
Версия формата : Version 1
Профиль формата : Layer 3
Режим : Joint stereo
Расширение режима : MS Stereo
Идентификатор кодека : 55
Идентификатор кодека/Подсказка : MP3
Продолжительность : 1 ч. 29 м.
Вид битрейта : Постоянный
Битрейт : 192 Кбит/сек
Каналы : 2 канала
Частота : 48,0 КГц
Метод сжатия : С потерями
Задержка видео : 40 мс.
Размер потока : 124 Мбайт (11%)
Выравнивание : Соединение по промежуткам
Продолжительность промежутка : 24 мс. (0,60 видеокадр)
Время предзагрузки промежутка : 504 мс.

Скриншот с названием постановки

[teatrix.ru].t15079.torrent 
Торрент: Зарегистрирован [ 2016-03-14 00:52 ] · BC2AF9998E82868DDCF3013A4DAC4A69A7157AB9

Скачать .torrent

Скачать

12 KB

Статус: проверено
Скачан: 0 раз
Размер: 1.1 GB
terms.php



Быстрый ответ

Имя:

      
Для отправки сообщений необходимо включить JavaScript
Показать сообщения:    

Текущее время: 08-Дек 23:13

Часовой пояс: UTC + 3


Вы можете начинать темы
Вы можете отвечать на сообщения
Вы не можете редактировать свои сообщения
Вы не можете удалять свои сообщения
Вы не можете голосовать в опросах
Вы не можете прикреплять файлы к сообщениям
Вы можете скачивать файлы