Дона Лопе / Dona Lupe (Гильермо Дель Торо / Guillermo del Toro) [1985, Мексика, Триллер, DVDRip] Original Spa + sub (Rus, Eng)


Статистика раздачи [Обновить пиров]
Размер:  450 MB   |    Зарегистрирован:  8 месяцев 20 дней   |    Скачан:  0 раз

Полного источника не было: Никогда

 
   
 
 
 

[Цитировать]

Дона Лопе / Dona Lupe
Страна: Мексика
Жанр: Триллер
Год выпуска: 1985
Продолжительность: 00:33:20
Перевод: Субтитры
Доп.инфо о переводе: Anna Lilith и Mark Silinio
Cубтитры: русские (srt), английские (sub+idx)
Оригинальная аудиодорожка: испанский, английский(дорожка комментариев)
Режиссер: Гильермо Дель Торо / Guillermo del Toro
В ролях:
Жозефина Гонсалез де Сильва / Josefina González de Silva
Жозе Льюиз Валледжо / Jose Luis Vallejo
Жейм Артуро Варгас / Jaime Arturo Vargas
Хермило Барба / Hermilo Barba
Жавьер Канедо / Javier Cañedo
Описание:
Первый фильм Гильермо Дель Торо, снятый им в 19 лет
Вторая аудиодорожка с комментариями Дель Торо на английском языке
Доп. информация:
http://www.imdb.com/title/tt0352307/
http://en.wikipedia.org/wiki/Dona_Lupe
Сэмпл: http://multi-up.com/820201
Качество видео: DVDRip
Формат видео: AVI
Видео: XviD, 640x448, aspect 1.429, 23.976fps, 1448Kbps
Аудио: AC3, 48KHz, 224kbps, stereo, оригинальная испанская
Аудио 2: AC3, 48KHz, 192kbps, stereo, английская с комментариями Гильермо Дель Торо
Формат субтитров: softsub (SRT) - Rus, prerender (SUB+IDX) - Eng

MediaInfo

General
Complete name : G:\видео\Dona Lupe (1985)\Guillermo del Toro-Doña Lupe (1985).avi
Format : AVI
Format/Info : Audio Video Interleave
File size : 448 MiB
Duration : 33mn 19s
Overall bit rate : 1 878 Kbps
Writing application : VirtualDubMod 1.5.10.2 (build 2540/release)
Writing library : VirtualDubMod build 2540/release
Video
ID : 0
Format : MPEG-4 Visual
Format profile : Advanced Simple@L5
Format settings, BVOP : 2
Format settings, QPel : No
Format settings, GMC : No warppoints
Format settings, Matrix : Default (H.263)
Codec ID : XVID
Codec ID/Hint : XviD
Duration : 33mn 19s
Bit rate : 1 448 Kbps
Width : 640 pixels
Height : 448 pixels
Display aspect ratio : 1.429
Frame rate : 23.976 fps
Color space : YUV
Chroma subsampling : 4:2:0
Bit depth : 8 bits
Scan type : Progressive
Compression mode : Lossy
Bits/(Pixel*Frame) : 0.211
Stream size : 345 MiB (77%)
Writing library : XviD 1.1.2 (UTC 2006-11-01)
Audio #1
ID : 1
Format : AC-3
Format/Info : Audio Coding 3
Mode extension : CM (complete main)
Format settings, Endianness : Big
Codec ID : 2000
Duration : 33mn 18s
Bit rate mode : Constant
Bit rate : 224 Kbps
Channel(s) : 2 channels
Channel positions : Front: L R
Sampling rate : 48.0 KHz
Bit depth : 16 bits
Compression mode : Lossy
Stream size : 53.4 MiB (12%)
Alignment : Split accross interleaves
Interleave, duration : 42 ms (1.00 video frame)
Interleave, preload duration : 500 ms
Audio #2
ID : 2
Format : AC-3
Format/Info : Audio Coding 3
Mode extension : CM (complete main)
Format settings, Endianness : Big
Codec ID : 2000
Duration : 33mn 18s
Bit rate mode : Constant
Bit rate : 192 Kbps
Channel(s) : 2 channels
Channel positions : Front: L R
Sampling rate : 48.0 KHz
Bit depth : 16 bits
Compression mode : Lossy
Stream size : 45.8 MiB (10%)
Alignment : Split accross interleaves
Interleave, duration : 42 ms (1.00 video frame)
Interleave, preload duration : 500 ms

фрагмент субтитров

1
00:00:01,234 --> 00:00:03,043
Посвящается:
журналам Игнасио Паленсиа
2
00:00:03,103 --> 00:00:05,105
комиксам Уилла Эйснера
и "El Pantera"
3
00:00:05,171 --> 00:00:07,481
и, с любовью и печалью,
4
00:00:07,540 --> 00:00:09,952
в пямять о
Санте "Человеке Серебрянная Маска"
5
00:00:10,010 --> 00:00:12,718
"Мертвые остаются в одиночестве".
Carlos Ancira в
6
00:00:12,779 --> 00:00:15,589
Санта в "Мести Мумии (1970)"
7
00:00:26,760 --> 00:00:29,240
Тем днём...
8
00:00:45,779 --> 00:00:46,757
Заказное письмо.
9
00:00:46,813 --> 00:00:49,157
- Моя пенсия?
- Нет.
10
00:00:49,582 --> 00:00:51,152
- Банк?
- Да
11
00:00:51,785 --> 00:00:53,765
Спасибо, Рутас.
12
00:02:31,017 --> 00:02:32,997
Боже мой.
13
00:02:38,591 --> 00:02:40,935
Они забирают наш дом.
14
00:02:44,664 --> 00:02:47,474
Что мне делать?
15
00:03:01,481 --> 00:03:03,722
Я знаю, Господи. Я знаю.
16
00:03:04,083 --> 00:03:08,054
"И..."
17
00:03:24,804 --> 00:03:28,775
К-О-М-
18
00:03:29,809 --> 00:03:35,816
Н-А-Т-А
19
00:03:36,849 --> 00:03:41,821
С-Д-А-Ё-Т-С-Я
20
00:03:51,898 --> 00:03:54,879
Сдаётся комната с/без мебели

Скриншот c названием фильма

Скриншоты

[teatrix.ru].t15080.torrent 
Торрент: Зарегистрирован [ 2016-03-14 00:52 ] · 747D1E7C4795F4F66431745F0707ECBB7B1309F0

Скачать .torrent

Скачать

18 KB

Статус: проверено
Скачан: 0 раз
Размер: 450 MB
terms.php



Быстрый ответ

Имя:

      
Для отправки сообщений необходимо включить JavaScript
Показать сообщения:    

Текущее время: 03-Дек 09:46

Часовой пояс: UTC + 3


Вы можете начинать темы
Вы можете отвечать на сообщения
Вы не можете редактировать свои сообщения
Вы не можете удалять свои сообщения
Вы не можете голосовать в опросах
Вы не можете прикреплять файлы к сообщениям
Вы можете скачивать файлы