Веревка / The Rope (Филипп Андре / Philippe Andre) [2005, Великобритания, короткометражка, DVDRip]


Статистика раздачи [Обновить пиров]
Размер:  125 MB   |    Зарегистрирован:  8 месяцев 24 дня   |    Скачан:  1 раз

Полного источника не было: 4 месяца 16 дней

 
   
 
 
 

[Цитировать]

Веревка / The Rope
Страна: Великобритания
Жанр: короткометражка
Год выпуска: 2005
Продолжительность: 00:10:23
Перевод: Не требуется
Cубтитры: нет
Режиссер: Philippe Andre / Филипп Андре
В ролях: Наташа Уайтман, Бретт Голдштейн, Олегар Федоро, Питер Чарлтон, Крис Доннелли, Томас Гарви
Описание: Короткометражный фильм режиссера Philippe Andre, пересказывающий в потрясающей метафоре жизнь и сложные взаимоотношения молодой пары – как порой это сложно быть «привязанным» к другому человеку.
Качество видео: DVDRip
Формат видео: AVI
Видео: 720x304 (2.37:1), 25 fps, XviD MPEG-4 ~1451 kbps avg, 0.27 bit/pixel
Аудио: 48 kHz, AC3 Dolby Digital, 2/0 (L,R) ch, ~224.00 kbps avg

MediaInfo

General
Complete name : D:\MOVIE\КОРОТКОМЕТРАЖКА\The rope.2005.avi
Format : AVI
Format/Info : Audio Video Interleave
File size : 125 MiB
Duration : 10mn 23s
Overall bit rate : 1 686 Kbps
Writing application : VirtualDubMod 1.5.10.2 (build 2540/release)
Writing library : VirtualDubMod build 2540/release
Video
ID : 0
Format : MPEG-4 Visual
Format profile : Advanced Simple@L5
Format settings, BVOP : 2
Format settings, QPel : No
Format settings, GMC : No warppoints
Format settings, Matrix : Custom
Muxing mode : Packed bitstream
Codec ID : XVID
Codec ID/Hint : XviD
Duration : 10mn 23s
Bit rate : 1 452 Kbps
Width : 720 pixels
Height : 304 pixels
Display aspect ratio : 2.35:1
Frame rate : 25.000 fps
Color space : YUV
Chroma subsampling : 4:2:0
Bit depth : 8 bits
Scan type : Progressive
Compression mode : Lossy
Bits/(Pixel*Frame) : 0.265
Stream size : 108 MiB (86%)
Writing library : XviD 65
Audio
ID : 1
Format : AC-3
Format/Info : Audio Coding 3
Mode extension : CM (complete main)
Codec ID : 2000
Duration : 10mn 23s
Bit rate mode : Constant
Bit rate : 224 Kbps
Channel(s) : 2 channels
Channel positions : Front: L R
Sampling rate : 48.0 KHz
Bit depth : 16 bits
Compression mode : Lossy
Stream size : 16.6 MiB (13%)
Alignment : Split accross interleaves
Interleave, duration : 40 ms (1.00 video frame)
Interleave, preload duration : 500 ms

Скриншот c названием фильма

Скриншоты

[teatrix.ru].t15081.torrent 
Торрент: Зарегистрирован [ 2016-03-14 00:51 ] · BBE1D90A9DE5D86C4C4F3744739608BE92F1BC09

Скачать .torrent

Скачать

20 KB

Статус: проверено
Скачан: 1 раз
Размер: 125 MB
terms.php



Быстрый ответ

Имя:

      
Для отправки сообщений необходимо включить JavaScript
Показать сообщения:    

Текущее время: 07-Дек 23:19

Часовой пояс: UTC + 3


Вы можете начинать темы
Вы можете отвечать на сообщения
Вы не можете редактировать свои сообщения
Вы не можете удалять свои сообщения
Вы не можете голосовать в опросах
Вы не можете прикреплять файлы к сообщениям
Вы можете скачивать файлы