Сказание о нас с Евгенией (Антон Бильжо) [2011, Россия, короткометражка, DVDRip]


Статистика раздачи [Обновить пиров]
Размер:  390 MB   |    Зарегистрирован:  8 месяцев 24 дня   |    Скачан:  0 раз

Полного источника не было: Никогда

Личеров:  3  [  0 KB/s  ]   Подробная статистика пиров
 
   
 
 
 

[Цитировать]

Сказание о нас с Евгенией
Страна: Россия
Жанр: короткометражка
Год выпуска: 2011
Продолжительность: 00:30:44
Режиссер: Антон Бильжо
В ролях: Александр Топурия, Людмила Круглова
Описание: Женщина-охотница подстрелила мужчину, летящего в косяке с другими мужчинами. Она выходила его и родила от него яйцо. Но он все мечтал о небе и, когда наступила весна, ему, наконец, удалось взлететь. Женщина выбежала с ружьем, выстрелила, но упал другой. Охотница взяла его домой, а мужчине осталось вспоминать о том, что безвозвратно утрачено.
Качество видео: DVDRip
Формат видео: AVI
Видео: 624x336 (1.86:1), 24.999 fps, XviD MPEG-4 ~1541 kbps avg, 0.29 bit/pixel
Аудио: 48 kHz, AC3 Dolby Digital, 2/0 (L,R) ch, ~224.00 kbps avg

MediaInfo

General
Complete name : D:\MOVIE\КОРОТКОМЕТРАЖКА\Сказание о нас с Евгенией.2011.avi
Format : AVI
Format/Info : Audio Video Interleave
File size : 390 MiB
Duration : 30mn 44s
Overall bit rate : 1 775 Kbps
Writing application : VirtualDubMod 1.5.10.2 (build 2540/release)
Writing library : VirtualDubMod build 2540/release
Video
ID : 0
Format : MPEG-4 Visual
Format profile : Advanced Simple@L5
Format settings, BVOP : 2
Format settings, QPel : No
Format settings, GMC : No warppoints
Format settings, Matrix : Custom
Muxing mode : Packed bitstream
Codec ID : XVID
Codec ID/Hint : XviD
Duration : 30mn 44s
Bit rate : 1 541 Kbps
Width : 624 pixels
Height : 336 pixels
Display aspect ratio : 1.857
Frame rate : 25.000 fps
Color space : YUV
Chroma subsampling : 4:2:0
Bit depth : 8 bits
Scan type : Progressive
Compression mode : Lossy
Bits/(Pixel*Frame) : 0.294
Stream size : 339 MiB (87%)
Writing library : XviD 65
Audio
ID : 1
Format : AC-3
Format/Info : Audio Coding 3
Mode extension : CM (complete main)
Codec ID : 2000
Duration : 30mn 44s
Bit rate mode : Constant
Bit rate : 224 Kbps
Channel(s) : 2 channels
Channel positions : Front: L R
Sampling rate : 48.0 KHz
Bit depth : 16 bits
Compression mode : Lossy
Stream size : 49.2 MiB (13%)
Alignment : Split accross interleaves
Interleave, duration : 40 ms (1.00 video frame)
Interleave, preload duration : 500 ms

Скриншот c названием фильма

Скриншоты

[teatrix.ru].t15098.torrent 
Торрент: Зарегистрирован [ 2016-03-14 00:55 ] · DE988888E66B7C7CCCC84378310D09CABF4FB299

Скачать .torrent

Скачать

16 KB

Статус: проверено
Скачан: 0 раз
Размер: 390 MB
terms.php



Быстрый ответ

Имя:

      
Для отправки сообщений необходимо включить JavaScript
Показать сообщения:    

Текущее время: 07-Дек 23:12

Часовой пояс: UTC + 3


Вы можете начинать темы
Вы можете отвечать на сообщения
Вы не можете редактировать свои сообщения
Вы не можете удалять свои сообщения
Вы не можете голосовать в опросах
Вы не можете прикреплять файлы к сообщениям
Вы можете скачивать файлы