Балетное лето / Un ete de danse. Les Grands Ballets canadiens de Montreal a Paris (Stephanie Weber Biron, Stijn Celis, Didy Veldman, Jiri Kylian, Ohad Naharin, Mauro Bigonzetti) [2010, Documentary, Ballet, DVB] Original (Fre) + Sub (ru hard)


 

[Цитировать]

Балетное лето: "Ле Гран Балле Канадьен, Монреаль" в Париже
Un été de danse. Les Grands Ballets canadiens de Montréal à Paris- Год выпуска: 2010
Страна-производитель: Канада
Жанр: Documentary, Ballet
Продолжительность: 00:51:12
Язык: французский
Перевод: субтитры (Éclair Group)
Субтитры: есть
Режиссер: Стефани Вебер Бирон / Stéphanie Weber BironИсполнители: Габриель Ламб / Gabrielle Lamb, Хесус Корралес / Jesus Corrales, Робен Мате / Robin Mathes, Эри Накамура / Eri Nakamura, Изабель Пакети / Isabelle Paquetie, Джон Холл / John Hall, Хокудо Кодама / Hokuto Kodama
Треклист (сцены из постановок):
1. Noces (музыка Igor Stravinski, хореография Stijn Celis)
2. TooT (музыка Balanescu Quartet, хореография Didy Veldman)
3. Six Danses (музыка: Sechs Deutsche Tänze, Wolfgang Amadeus Mozart, хореография Jiri Kylian)
4. Minus One (музыка: Ehad Mi Yodea, Paul Smadbeck, хореография Ohad Naharin)
5. Les Quatre Saisons (музыка Antonio Vivaldi, хореография Mauro Bigonzetti)
6. Cantata (итальянская народная музыка, хореография Mauro Bigonzetti)
Описание: Впервые канадская балетная труппа "Ле Гран Балле Канадьен, Монреаль / les Grands Ballets canadiens de Montréal" выступает в рамках фестиваля "Балетное лето" 2008 года в Большом дворце в Париже. Трехнедельные выступления, 6 постановок, напряженная работа… Зрители смогут оценить мастерство танцоров, которые способны работать в разных стилях... (из предисловия к фильму)
Доп. информация: запись со спутника (канал TV5MONDE).
Качество видео: DVB
Формат/Контейнер: MPEG-PS
Видео кодек: MPEG2
Аудио кодек: MP2
Видео поток: MPEG Video 2, 720x576@1024x576 (16:9), 25 fps, ~3205 kbps avg, 0.309 bit/
Аудио поток: Французский (48 kHz, MPEG Audio 2, 2 ch, ~192.00 kbps avg)
Формат субтитров: hardsub (неотключаемые)

MediaInfo

Полное имя                               : H:\My Torrents\[apreder]Un_ete_de_danse(2010)DVB.mpg
Формат : MPEG-PS
Размер файла : 1,24 Гбайт
Продолжительность : 51 м.
Режим общего битрейта : Переменный
Общий поток : 3466 Кбит/сек
Видео
Идентификатор : 224 (0xE0)
Формат : MPEG Video
Версия формата : Version 2
Профиль формата : Main@Main
Параметр BVOP формата : Да
Параметр матрицы формата : Выборочная
Параметр GOP формата : M=3, N=24
Продолжительность : 51 м.
Вид битрейта : Переменный
Битрейт : 3205 Кбит/сек
Ширина : 720 пикселей
Высота : 576 пикселей
Соотношение сторон : 16:9
Частота кадров : 25,000 кадров/сек
Стандарт вещания : PAL
Цветовое пространство : YUV
Субдискретизация насыщенности : 4:2:0
Битовая глубина : 8 бит
Тип развёртки : Прогрессивная
Порядок развёртки : Верхнее поле первое
Метод сжатия : С потерями
Бит/(Пиксели*Кадры) : 0.309
Размер потока : 1,15 Гбайт (92%)
Аудио
Идентификатор : 192 (0xC0)
Формат : MPEG Audio
Версия формата : Version 1
Профиль формата : Layer 2
Продолжительность : 51 м.
Вид битрейта : Постоянный
Битрейт : 192 Кбит/сек
Каналы : 2 канала
Частота : 48,0 КГц
Метод сжатия : С потерями
Размер потока : 70,3 Мбайт (6%)

Скриншоты анаморфированные



-597/579√



Показать сообщения:    

Текущее время: 08-Дек 17:25

Часовой пояс: UTC + 3


Вы не можете начинать темы
Вы не можете отвечать на сообщения
Вы не можете редактировать свои сообщения
Вы не можете удалять свои сообщения
Вы не можете голосовать в опросах
Вы не можете прикреплять файлы к сообщениям
Вы не можете скачивать файлы