Открытка / La carte (Стефан Ле Лей / Stefan Le Lay) [2009, Франция, лирическая комедия, постмодернизм, короткий метр, DVB]


Статистика раздачи [Обновить пиров]
Размер:  125 MB   |    Зарегистрирован:  8 месяцев 28 дней   |    Скачан:  0 раз

Полного источника не было: Никогда

 
   
 
 
 

[Цитировать]

Открытка
La carte- Страна: Франция
Жанр: лирическая комедия, постмодернизм, короткий метр
Год выпуска: 2009
Продолжительность: 00:07:17
Перевод: Не требуется
Cубтитры: нет
Оригинальная аудиодорожка: музыкальное сопровождение
Режиссер: Стефан Ле Лей / Stefan Le Lay
В ролях: Сара Вио / Sara Viot, Тибо Соммен / Thibault Sommain
Описание: Мужчина с цветной пляжной открытки влюбляется в женщину с черно-белой открытки. Он готов пойти на все, чтобы быть вместе с нею…
Доп. информация: Собственная запись со спутника (канал TV5MONDE).
Награды: приз "Золотой медведь" Festival des Nations d'Ebensee 2010; Специальный почетный приз жюри Festival international du court-métrage d'Hambourg 2010; награда International Fantasy Film Award Fantasporto 2010 за лучшую короткометражку; всего более 20 наград МКФ.
Информация: http://www.imdb.com/title/tt1587795/
Сэмпл: http://multi-up.com/828201
Качество видео: DVB
Формат видео: MPEG-PS
Видео: MPEG Video 2, 720x576@1024x576 (16:9), 25 fps, ~2161 kbps avg, 0.208 bit/pixel
Аудио: Французский (48 kHz, MPEG Audio 2, 2 ch, ~192.00 kbps avg)

MediaInfo

Полное имя                               : H:\My Torrents\[apreder]MINI_MOVIE_008\[apreder]MM_La_carte(2009)DVB.mpg
Формат : MPEG-PS
Размер файла : 125 Мбайт
Продолжительность : 7 м. 17 с.
Режим общего битрейта : Переменный
Общий поток : 2401 Кбит/сек
Видео
Идентификатор : 224 (0xE0)
Формат : MPEG Video
Версия формата : Version 2
Профиль формата : Main@Main
Параметр BVOP формата : Да
Параметр матрицы формата : Выборочная
Параметр GOP формата : M=3, N=24
Продолжительность : 7 м. 17 с.
Вид битрейта : Переменный
Битрейт : 2161 Кбит/сек
Ширина : 720 пикселей
Высота : 576 пикселей
Соотношение сторон : 16:9
Частота кадров : 25,000 кадров/сек
Стандарт вещания : PAL
Цветовое пространство : YUV
Субдискретизация насыщенности : 4:2:0
Битовая глубина : 8 бит
Тип развёртки : Прогрессивная
Порядок развёртки : Верхнее поле первое
Метод сжатия : С потерями
Бит/(Пиксели*Кадры) : 0.208
Размер потока : 113 Мбайт (90%)
Аудио
Идентификатор : 192 (0xC0)
Формат : MPEG Audio
Версия формата : Version 1
Профиль формата : Layer 2
Продолжительность : 7 м. 17 с.
Вид битрейта : Постоянный
Битрейт : 192 Кбит/сек
Каналы : 2 канала
Частота : 48,0 КГц
Метод сжатия : С потерями
Размер потока : 10,0 Мбайт (8%)

Скриншот c названием фильма

Скриншоты

Скриншоты анаморфированные

-604/586√
[teatrix.ru].t15107.torrent 
Торрент: Зарегистрирован [ 2016-03-14 00:55 ] · 4C761456B0815F722664DC9BD11518780256D4DA

Скачать .torrent

Скачать

20 KB

Статус: проверено
Скачан: 0 раз
Размер: 125 MB
terms.php



Быстрый ответ

Имя:

      
Для отправки сообщений необходимо включить JavaScript
Показать сообщения:    

Текущее время: 11-Дек 03:17

Часовой пояс: UTC + 3


Вы можете начинать темы
Вы можете отвечать на сообщения
Вы не можете редактировать свои сообщения
Вы не можете удалять свои сообщения
Вы не можете голосовать в опросах
Вы не можете прикреплять файлы к сообщениям
Вы можете скачивать файлы