Faure, Стравинский, Чайковский - Les Joyaux / Драгоценности (George Balanchine / Джорж Баланчин, Opera National de Paris, Paul Connelly) [2005, Ballet, HDTV 1080i] Mezzo HD


 

[Цитировать]

Les Joyaux, ballet en 3 parties de George Balanchine
Драгоценности, балет в 3 частях Джоржа Баланчина

Год выпуска: 2005
Лейбл: Telmondis
Страна-производитель: France
Жанр: Ballet
Продолжительность: 1:33:14
Chorégraphie de George Balanchine
Décors et costumes: Christian Lacroix
Le corps de Ballet de l'Opéra national de Paris.
Orchestre de l'Opéra national de Paris
Direction: Paul Connelly
Качество видео: HDTVRip
Формат/Контейнер: TS
Видео кодек: H.264
Аудио кодек: AC3
Видео поток: AVC, 1920×1080i, 8958 Kbps, 25 fps
Аудио поток: AC3, 256 Kbps, 48.0 KHz, 2 channels

Исполнители

Emeraudes / Изумруды
musique Gabriel Fauré / музыка: Габриель Форе
Clairemarie Osta, Kader Belarbi, Laëtitia Pujol,
Mathieu Ganio, Eleonora Abbagnato, Nolwenn Daniel,
Emmanuel Thibault
Клэрмари Оста, Кадер Беларби, Летиция Пюжоль
Мэтью Ганьо, Элеонора Абаньято, Нолвин Даниэль
Эмманюэль Тибо
-
Rubis / Рубины
musique Igor Stravinski / музыка: Игорь Стравинский

Aurélie Dupont, Alessio Carbone, Marie-Agnès Gillot
Jean-Yves Sebillotte (piano)
Орели Дюпон, Алессио Карбоне, Мари-Аньес Жило,
Жан-Ив Себийот (фортепьяно)
.-Diamants / Бриллианты
musique Piotr Ilyitch Tchaikovski / музыка: Пётр Ильич Чайковский

Agnès Letestu, Jean-Guillaume Bart, Isabelle Ciaravola, Emilie Cozette
Аньес Летестю, Жан-Гийом Бар, Изабель Сьяравола, Эмиль Козетт

MediaInfo

General
ID : 1 (0x1)
Complete name : G:\Torrent\Joyaux (Opera National de Paris) 2005.ts
Format : MPEG-TS
File size : 5.83 GiB
Duration : 1h 33mn
Overall bit rate mode : Variable
Overall bit rate : 8 958 Kbps
Maximum Overall bit rate : 35.5 Mbps
Video
ID : 4113 (0x1011)
Menu ID : 1 (0x1)
Format : AVC
Format/Info : Advanced Video Codec
Format profile : High@L4.0
Format settings, CABAC : Yes
Format settings, ReFrames : 3 frames
Codec ID : 27
Duration : 1h 33mn
Bit rate : 8 257 Kbps
Width : 1 920 pixels
Height : 1 080 pixels
Display aspect ratio : 16:9
Frame rate : 25.000 fps
Standard : Component
Color space : YUV
Chroma subsampling : 4:2:0
Bit depth : 8 bits
Scan type : Interlaced
Scan order : Top Field First
Bits/(Pixel*Frame) : 0.159
Stream size : 5.38 GiB (92%)
Color primaries : BT.709
Transfer characteristics : BT.709
Matrix coefficients : BT.709
Audio
ID : 4352 (0x1100)
Menu ID : 1 (0x1)
Format : AC-3
Format/Info : Audio Coding 3
Mode extension : CM (complete main)
Format settings, Endianness : Big
Codec ID : 129
Duration : 1h 33mn
Bit rate mode : Constant
Bit rate : 256 Kbps
Channel(s) : 2 channels
Channel positions : Front: L R
Sampling rate : 48.0 KHz
Bit depth : 16 bits
Compression mode : Lossy
Stream size : 171 MiB (3%)
Language : French



Показать сообщения:    

Текущее время: 11-Дек 11:05

Часовой пояс: UTC + 3


Вы не можете начинать темы
Вы не можете отвечать на сообщения
Вы не можете редактировать свои сообщения
Вы не можете удалять свои сообщения
Вы не можете голосовать в опросах
Вы не можете прикреплять файлы к сообщениям
Вы не можете скачивать файлы