Сумерки / Twilight (Тэнгай Амано / Tengai Amano) [1994, Япония, Арт-хаус, короткий метр, сюрреализм, экспериментал, DVDRip] [Syn.Optik] + Sub Rus


Статистика раздачи [Обновить пиров]
Размер:  399 MB   |    Зарегистрирован:  8 месяцев 26 дней   |    Скачан:  1 раз

Полного источника не было: 8 месяцев 22 дня

Личеров:  33  [  0 KB/s  ]   Подробная статистика пиров
 
   
 
 
 

[Цитировать]

Сумерки / Twilight
Страна: Япония
Жанр: Арт-хаус, короткий метр, сюрреализм, экспериментал
Год выпуска: 1994
Продолжительность: 00:33:23
Перевод: Субтитры от [Syn.Optik]
Cубтитры: русские, английские
Оригинальная аудиодорожка: музыкальная
Режиссер: Тэнгай Амано / Tengai Amano
В ролях: неизвестно
Описание:
Чистое Запределье; это Высший Пилотаж в магии кинематографа.
Всё остальное неминуемо меркнет.
Доп. информация: Награды на International Short Film Festival Oberhausen и Melbourne International Film Festival (Short Film Programme).
http://www.imdb.com/title/tt0230906/
Качество видео: DVDRip
Формат видео: AVI
Видео: XVID, 592x448, 4:3, 23.976 fps, 1 556 Kbps
Аудио: MP3, 48.0 KHz, 102 Kbps, Joint stereo, 2 channels
Формат субтитров: softsub (SRT)

MediaInfo

General
Complete name : /home/rain/Видео/Twilight_Tengai Amano_1994_ru/twilight.(tengai.amano.1994).avi
Format : AVI
Format/Info : Audio Video Interleave
File size : 399 MiB
Duration : 33mn 23s
Overall bit rate mode : Variable
Overall bit rate : 1 671 Kbps
Writing application : VirtualDubMod 1.5.4.1 (build 2178/release)
Writing library : VirtualDubMod build 2178/release
Video
ID : 0
Format : MPEG-4 Visual
Format profile : Advanced Simple@L5
Format settings, BVOP : 1
Format settings, QPel : No
Format settings, GMC : No warppoints
Format settings, Matrix : Custom
Codec ID : XVID
Codec ID/Hint : XviD
Duration : 33mn 23s
Bit rate : 1 556 Kbps
Width : 592 pixels
Height : 448 pixels
Display aspect ratio : 4:3
Frame rate : 23.976 fps
Color space : YUV
Chroma subsampling : 4:2:0
Bit depth : 8 bits
Scan type : Progressive
Compression mode : Lossy
Bits/(Pixel*Frame) : 0.245
Stream size : 372 MiB (93%)
Writing library : XviD 1.1.2 (UTC 2006-11-01)
Audio
ID : 1
Format : MPEG Audio
Format version : Version 1
Format profile : Layer 3
Mode : Joint stereo
Mode extension : MS Stereo
Codec ID : 55
Codec ID/Hint : MP3
Duration : 33mn 23s
Bit rate mode : Variable
Bit rate : 102 Kbps
Nominal bit rate : 128 Kbps
Channel(s) : 2 channels
Sampling rate : 48.0 KHz
Compression mode : Lossy
Stream size : 24.5 MiB (6%)
Alignment : Aligned on interleaves
Interleave, duration : 24 ms (0.58 video frame)
Interleave, preload duration : 554 ms
Writing library : LAME3.97
Encoding settings : -m j -V 4 -q 2 -lowpass 17 --abr 128
Language : Japanese

Пример субтитров

1
00:00:10,010 --> 00:00:14,970
СУМЕРКИ
2
00:00:31,631 --> 00:00:32,290
Папа?
3
00:00:35,168 --> 00:00:35,793
Мама?
4
00:02:32,719 --> 00:02:33,014
Быстрее!
5
00:02:37,490 --> 00:02:37,751
Быстрее, быстрее!
6
00:02:44,097 --> 00:02:44,392
Ну же, быстрее!
7
00:07:41,393 --> 00:07:41,859
Улица.
8
00:07:45,830 --> 00:07:46,262
Улица.
9
00:07:48,667 --> 00:07:49,133
Улица, 3 ч.
10
00:08:09,087 --> 00:08:09,553
Я в растерянности.
11
00:08:11,690 --> 00:08:12,156
Я в растерянности.
12
00:08:21,066 --> 00:08:21,532
Я в растерянности.
13
00:08:31,076 --> 00:08:31,542
Я в растерянности.
14
00:08:33,979 --> 00:08:34,638
Телефон!
15
00:08:47,859 --> 00:08:48,120
O!
16
00:08:48,893 --> 00:08:49,325
Ты в растерянности.
17
00:08:52,129 --> 00:08:52,595
Тяни.
18
00:09:17,889 --> 00:09:18,321
Извините.
19
00:09:22,460 --> 00:09:23,188
Билет.
20
00:09:31,903 --> 00:09:32,835
Быстрей!

Скриншот c названием фильма

[teatrix.ru].t15119.torrent 
Торрент: Зарегистрирован [ 2016-03-14 00:55 ] · E4470C9B2F3552EB1E7736F3290969BA75DD65C6

Скачать .torrent

Скачать

32 KB

Статус: проверено
Скачан: 1 раз
Размер: 399 MB
terms.php



Быстрый ответ

Имя:

      
Для отправки сообщений необходимо включить JavaScript
Показать сообщения:    

Текущее время: 10-Дек 00:20

Часовой пояс: UTC + 3


Вы можете начинать темы
Вы можете отвечать на сообщения
Вы не можете редактировать свои сообщения
Вы не можете удалять свои сообщения
Вы не можете голосовать в опросах
Вы не можете прикреплять файлы к сообщениям
Вы можете скачивать файлы