Сумерки / Twilight (Тэнгай Амано / Tengai Amano) [1994, Япония, Арт-хаус, короткий метр, сюрреализм, экспериментал, DVDRip] VO (Васька Куролесов)


Статистика раздачи [Обновить пиров]
Размер:  404 MB   |    Зарегистрирован:  8 месяцев 20 дней   |    Скачан:  0 раз

Полного источника не было: Никогда

Личеров:  30  [  0 KB/s  ]   Подробная статистика пиров
 
   
 
 
 

[Цитировать]

Сумерки / Twilight
Страна: Япония
Жанр: Арт-хаус, короткий метр, сюрреализм, экспериментал
Год выпуска: 1994
Продолжительность: 00:33:23
Перевод: Одноголосый закадровый Васька Куролесов по субтитрам [Syn.Optik]
Cубтитры: нет
Оригинальная аудиодорожка: нет
Режиссер: Тэнгай Амано / Tengai Amano
В ролях: Неизвестно
Описание: Чистое Запределье; это Высший Пилотаж в магии кинематографа.
Всё остальное неминуемо меркнет.
Доп. информация: Награды на International Short Film Festival Oberhausen и Melbourne International Film Festival (Short Film Programme)
http://www.imdb.com/title/tt0230906/
Взято отсюда: http://teatrix.ru/viewtopic.php?t=15119
Сэмпл: http://multi-up.com/833443
Просмотреть сэмпл: http://www.youtube.com/watch?v=-Gd9FDhKzZ8
Качество видео: DVDRip
Формат видео: AVI
Видео: XVID, 592x448, 4:3, 23.976 fps, 1 556 Kbps, 0.24 bit/pixel
Аудио: 48 kHz, MPEG Layer 3, 2 ch, 128 kbps avg

MediaInfo

I:\twilight_(tengai.amano.1994).avi
General
Complete name : I:\twilight_(tengai.amano.1994).avi
Format : AVI
Format/Info : Audio Video Interleave
File size : 404 MiB
Duration : 33mn 23s
Overall bit rate : 1 693 Kbps
Writing application : VirtualDubMod 1.5.10.2 (build 2540/release)
Writing library : VirtualDubMod build 2540/release
Video #0
ID : 0
Format : MPEG-4 Visual
Format profile : Advanced Simple@L5
Format settings, BVOP : 1
Format settings, QPel : No
Format settings, GMC : No warppoints
Format settings, Matrix : Custom
Codec ID : XVID
Codec ID/Hint : XviD
Duration : 33mn 23s
Bit rate : 1 556 Kbps
Width : 592 pixels
Height : 448 pixels
Display aspect ratio : 4:3
Frame rate : 23.976 fps
Color space : YUV
Chroma subsampling : 4:2:0
Bit depth : 8 bits
Scan type : Progressive
Compression mode : Lossy
Bits/(Pixel*Frame) : 0.245
Stream size : 372 MiB (92%)
Writing library : XviD 1.1.2 (UTC 2006-11-01)
Audio #1
ID : 1
Format : MPEG Audio
Format version : Version 1
Format profile : Layer 3
Mode : Joint stereo
Mode extension : MS Stereo
Codec ID : 55
Codec ID/Hint : MP3
Duration : 33mn 20s
Bit rate mode : Constant
Bit rate : 128 Kbps
Channel(s) : 2 channels
Sampling rate : 48.0 KHz
Compression mode : Lossy
Stream size : 30.5 MiB (8%)
Alignment : Aligned on interleaves
Interleave, duration : 42 ms (1.00 video frame)
Interleave, preload duration : 504 ms
Language : Japanese

Скриншот c названием фильма

Скриншоты

[teatrix.ru].t15120.torrent 
Торрент: Зарегистрирован [ 2016-03-14 00:55 ] · 39ABCBF104A2F3245A63ED182EA7688F5424D09F

Скачать .torrent

Скачать

32 KB

Статус: проверено
Скачан: 0 раз
Размер: 404 MB
terms.php



Быстрый ответ

Имя:

      
Для отправки сообщений необходимо включить JavaScript
Показать сообщения:    

Текущее время: 03-Дек 16:45

Часовой пояс: UTC + 3


Вы можете начинать темы
Вы можете отвечать на сообщения
Вы не можете редактировать свои сообщения
Вы не можете удалять свои сообщения
Вы не можете голосовать в опросах
Вы не можете прикреплять файлы к сообщениям
Вы можете скачивать файлы