Сергей Прокофьев - Ромео и Джульетта (Валерий Гергиев, Диана Вишнёва, Владимир Шкляров) [Леонид Лавровский] / Sergey Prokofiev - Romeo and Juliet (Valery Gergiev, Diana Vishneva, Vladimir Shklyarov) [03.01.2013, Classic ballet, HDTVRip]


 

[Цитировать]

Ромео и Джульетта / Romeo and Juliet
Год выпуска: 03.01.2013
Лейбл: Mariinsky Theatre
Страна-производитель: Россия
Жанр: Classic ballet
Продолжительность: 02:47:22
Музыка: Сергей Сергеевич Прокофьев
Дирижер: Валерий Гергиев / Valery Gergiev
Исполнители музыки: Оркестр Мариинского театра
Режиссер/Хореограф: Леонид Лавровский / Leonid Lavrovsky
Исполнители:
Джульетта – Диана Вишнёва / Diana Vishneva
Ромео – Владимир Шкляров / Vladimir Shklyarov
Тибальд – Илья Кузнецов / Ilya Kuznetsov
Меркуцио – Александр Сергеев / Alexander Sergeyev
Треклист: Балет в 3-х действиях, 13-ти картинах
Описание: Запись трансляции балета MEZZO.
Доп. информация: Запись трансляции осуществлена VeRa при содействии Mauricelugher за что им огромное спасибо.
Желающих скачать прошу обратить внимание на то, что:
первый акт - HDTVRip в контейнере mkv с битрейтом 1 904 Kbps,
второй акт - HDTVRip в контейнере TS с битрейтом 7 414 Kbps,
третий акт - HDTVRip со спутника в контейнере mkv с битрейтом 10 000 Kbps.
Ну так уж получилось.
Акт I
Качество видео: HDTVRip
Формат/Контейнер: MKV
Видео кодек: H.264
Аудио кодек: A_AAC
Видео поток: MPEG4 Video (H264) 720x576 (1024 x 576) (16:9) 25.00fps
Аудио поток: AAC 48000Hz stereo
Сэмпл http://multi-up.com/839972
Акт II
Качество видео: HDTVRip
Формат/Контейнер: MPEG-TS
Видео кодек: H.264
Аудио кодек: MPEG Audio
Видео поток: MPEG4 Video (H264) 1920x1080 25.00fps
Аудио поток: MPEG Audio 48000Hz stereo
Сэмпл http://multi-up.com/839972
Акт III
Качество видео: HDTVRip
Формат/Контейнер: MKV
Видео кодек: H.264
Аудио кодек: A_AC3
Видео поток: MPEG4 Video (H264) 1920x1080 25.00fps
Аудио поток: Dolby AC3 48000Hz stereo
Сэмпл http://multi-up.com/839972

Mediainfo

Акт I
Format : Matroska
File size : 1.00 GiB
Duration : 1h 10mn
Overall bit rate : 2 034 Kbps
Movie name : Romeo & Juliet The Mariinsky Theater 2013-ACT 1-Scene 1-SD
Encoded date : UTC 2013-03-05 00:12:07
Writing application : mkvmerge v5.5.0 ('Healer') built on Apr 6 2012 21:43:24
Writing library : libebml v1.2.3 + libmatroska v1.3.0
Video
ID : 1
Format : AVC
Format/Info : Advanced Video Codec
Format profile : High@L4.0
Format settings, CABAC : Yes
Format settings, ReFrames : 3 frames
Muxing mode : Container profile=Unknown@4.0
Codec ID : V_MPEG4/ISO/AVC
Duration : 1h 10mn
Nominal bit rate : 1 904 Kbps
Width : 720 pixels
Height : 576 pixels
Display aspect ratio : 16:9
Frame rate : 25.000 fps
Standard : PAL
Color space : YUV
Chroma subsampling : 4:2:0
Bit depth : 8 bits
Scan type : Progressive
Bits/(Pixel*Frame) : 0.184
Writing library : x264 core 125 r2208 d9d2288
Encoding settings : cabac=1 / ref=3 / deblock=1:0:0 / analyse=0x3:0x113 / me=hex / subme=7 / psy=1 / psy_rd=1.00:0.00 / mixed_ref=1 / me_range=16 / chroma_me=1 / trellis=1 / 8x8dct=1 / cqm=0 / deadzone=21,11 / fast_pskip=1 / chroma_qp_offset=-2 / threads=6 / lookahead_threads=1 / sliced_threads=0 / nr=0 / decimate=1 / interlaced=0 / bluray_compat=0 / constrained_intra=0 / bframes=3 / b_pyramid=0 / b_adapt=1 / b_bias=0 / direct=1 / weightb=1 / open_gop=0 / weightp=2 / keyint=250 / keyint_min=25 / scenecut=40 / intra_refresh=0 / rc_lookahead=40 / rc=2pass / mbtree=1 / bitrate=1904 / ratetol=1.0 / qcomp=0.60 / qpmin=0 / qpmax=69 / qpstep=4 / cplxblur=20.0 / qblur=0.5 / vbv_maxrate=25000 / vbv_bufsize=25000 / nal_hrd=vbr / ip_ratio=1.40 / aq=1:1.00
Audio
ID : 2
Format : AAC
Format/Info : Advanced Audio Codec
Format version : Version 4
Format profile : LC
Format settings, SBR : No
Codec ID : A_AAC
Duration : 1h 10mn
Channel(s) : 2 channels
Channel positions : Front: L R
Sampling rate : 48.0 KHz
Language : French
Акт II
Format : MPEG-TS
File size : 2.03 GiB
Duration : 36mn 22s
Overall bit rate : 8 003 Kbps
Video
ID : 160 (0xA0)
Menu ID : 30750 (0x781E)
Format : AVC
Format/Info : Advanced Video Codec
Format profile : High@L4.0
Format settings, CABAC : Yes
Format settings, ReFrames : 4 frames
Format settings, GOP : M=8, N=24
Duration : 36mn 22s
Bit rate : 7 414 Kbps
Width : 1 920 pixels
Height : 1 080 pixels
Display aspect ratio : 16:9
Frame rate : 25.000 fps
Color space : YUV
Chroma subsampling : 4:2:0
Bit depth : 8 bits
Scan type : MBAFF
Bits/(Pixel*Frame) : 0.143
Stream size : 1.88 GiB (93%)
Color primaries : BT.709-5, BT.1361, IEC 61966-2-4, SMPTE RP177
Transfer characteristics : BT.709-5, BT.1361
Matrix coefficients : BT.709-5, BT.1361, IEC 61966-2-4 709, SMPTE RP177
Audio
ID : 80 (0x50)
Menu ID : 30750 (0x781E)
Format : MPEG Audio
Format version : Version 1
Format profile : Layer 2
Mode : Joint stereo
Mode extension : Intensity Stereo + MS Stereo
Duration : 36mn 22s
Bit rate mode : Constant
Bit rate : 192 Kbps
Channel(s) : 2 channels
Sampling rate : 48.0 KHz
Video delay : 6ms
Stream size : 49.9 MiB (2%)
Language : Spanish
Language, more info : Clean effects
Акт III
Format : Matroska
File size : 4.42 GiB
Duration : 1h 1mn
Overall bit rate : 10.4 Mbps
Encoded date : UTC 2013-03-02 05:20:49
Writing application : mkvmerge v3.3.0 ('Language') compilato il Mar 24 2010 14:59:24
Writing library : libebml v0.8.0 + libmatroska v0.9.0
Video
ID : 1
Format : AVC
Format/Info : Advanced Video Codec
Format profile : High@L5.0
Format settings, CABAC : Yes
Format settings, ReFrames : 4 frames
Muxing mode : Container profile=Unknown@5.0
Codec ID : V_MPEG4/ISO/AVC
Duration : 1h 1mn
Bit rate : 10 000 Kbps
Width : 1 920 pixels
Height : 1 080 pixels
Display aspect ratio : 16:9
Frame rate : 25.000 fps
Color space : YUV
Chroma subsampling : 4:2:0
Bit depth : 8 bits
Scan type : Progressive
Bits/(Pixel*Frame) : 0.193
Stream size : 4.17 GiB (94%)
Writing library : x264 core 120
Encoding settings : cabac=1 / ref=4 / deblock=1:0:0 / analyse=0x3:0x113 / me=hex / subme=7 / psy=1 / psy_rd=1.00:0.00 / mixed_ref=1 / me_range=16 / chroma_me=1 / trellis=1 / 8x8dct=1 / cqm=0 / deadzone=21,11 / fast_pskip=1 / chroma_qp_offset=-2 / threads=6 / sliced_threads=0 / nr=0 / decimate=1 / interlaced=0 / bluray_compat=0 / constrained_intra=0 / bframes=4 / b_pyramid=2 / b_adapt=2 / b_bias=0 / direct=1 / weightb=0 / open_gop=0 / weightp=0 / keyint=250 / keyint_min=25 / scenecut=40 / intra_refresh=0 / rc_lookahead=40 / rc=abr / mbtree=1 / bitrate=10000 / ratetol=1.0 / qcomp=0.60 / qpmin=3 / qpmax=69 / qpstep=4 / ip_ratio=1.40 / aq=1:1.00
Language : English
Color primaries : BT.709-5, BT.1361, IEC 61966-2-4, SMPTE RP177
Transfer characteristics : BT.709-5, BT.1361
Matrix coefficients : BT.709-5, BT.1361, IEC 61966-2-4 709, SMPTE RP177
Audio
ID : 2
Format : AC-3
Format/Info : Audio Coding 3
Mode extension : CM (complete main)
Codec ID : A_AC3
Duration : 1h 1mn
Bit rate mode : Constant
Bit rate : 384 Kbps
Channel(s) : 2 channels
Channel positions : Front: L R
Sampling rate : 48.0 KHz
Bit depth : 16 bits
Stream size : 168 MiB (4%)

Скриншоты






Показать сообщения:    

Текущее время: 07-Дек 19:27

Часовой пояс: UTC + 3


Вы не можете начинать темы
Вы не можете отвечать на сообщения
Вы не можете редактировать свои сообщения
Вы не можете удалять свои сообщения
Вы не можете голосовать в опросах
Вы не можете прикреплять файлы к сообщениям
Вы не можете скачивать файлы