П.И. Чайковский - Щелкунчик (Рудольф Нуреев) / Pyotr Tchaikovsky - The Nutcracker (Paul Connelly, Liudmila Konovalova, Vladimir Shishov) [2012, Ballet, HDTVRip]


 

[Цитировать]

Щелкунчик / The Nutcracker
Год выпуска: 2012
Лейбл: Wiener Staatsoper
Страна-производитель: Австрия
Жанр: Ballet
Продолжительность: 01:41:08
Композитор: П.И. Чайковский
Дирижер: Пол Коннелли / Paul Connelly
Исполнители музыки: Orchester der Wiener Staatsoper
Режиссер/Хореограф: Рудольф Нуреев / Rudolf Nureev
Репетиторы:Aleth Francillon, Manuel Legris, Nathalie Aubin
Сценография и костюмы:Nicholas Georgiadis
Исполнители:
Liudmila Konovalova (Clara)
Vladimir Shishov (Drosselmeyer/Der Prinz)
Emilia Baranowicz (Luisa)
Davide Dato (Fritz)
Gabor Oberegger (Der Vater)
Franziska Wallner-Hollinek (Die Mutter)
Christoph Wenzel (Der Grossvater)
Eva Polacek (Die Grossmutter)
Attila Bakó, Martin Winter (Der Rattenkönig)
Trevor Hayden (Der kleine Nussknacker)
Описание:
Рудольф Нуреев создал свою хореографию этого классического балета в 1985 году для Национальной парижской оперы, где он являлся художественным руководителем балета прославленного театра.
Доп. информация: Автор рипа alex7, за что ему огромное спасибо.
Качество видео: HDTVRip
Формат/Контейнер: MKV
Видео кодек: H.264
Аудио кодек: AC3
Видео поток: MPEG4 Video (H264) 1280x720 25.00fps
Аудио поток: Dolby AC3 48000Hz stereo 1536kbps
сэмпл http://multi-up.com/842877

Mediainfo

Format : Matroska
File size : 4.55 GiB
Duration : 1h 41mn
Overall bit rate : 6 440 Kbps
Writing application : Lavf51.12.1
Writing library : Lavf51.12.1
Video
ID : 1
Format : AVC
Format/Info : Advanced Video Codec
Format profile : Baseline@L1.3
Format settings, CABAC : No
Format settings, ReFrames : 1 frame
Muxing mode : Container profile=Unknown@1.3
Codec ID : V_MPEG4/ISO/AVC
Duration : 1h 41mn
Bit rate : 5 928 Kbps
Width : 1 280 pixels
Height : 720 pixels
Display aspect ratio : 16:9
Frame rate : 25.000 fps
Color space : YUV
Chroma subsampling : 4:2:0
Bit depth : 8 bits
Scan type : Progressive
Bits/(Pixel*Frame) : 0.257
Stream size : 4.19 GiB (92%)
Audio
ID : 2
Format : AC-3
Format/Info : Audio Coding 3
Mode extension : CM (complete main)
Codec ID : A_AC3
Duration : 1h 41mn
Bit rate mode : Constant
Bit rate : 384 Kbps
Channel(s) : 2 channels
Channel positions : Front: L R
Sampling rate : 48.0 KHz
Bit depth : 16 bits
Stream size : 278 MiB (6%)
Language : English

Скриншоты




Показать сообщения:    

Текущее время: 05-Дек 05:29

Часовой пояс: UTC + 3


Вы не можете начинать темы
Вы не можете отвечать на сообщения
Вы не можете редактировать свои сообщения
Вы не можете удалять свои сообщения
Вы не можете голосовать в опросах
Вы не можете прикреплять файлы к сообщениям
Вы не можете скачивать файлы