Leo Delibes - Coppelia (choreographie: Patrice Bart; Dorothee Gilbert, Mathias Heymann, Jose Martinez, Fabrice Bourgeois; Opera National de Paris - Koen Kessels) [2011, Ballet, HDTV 1080i] Mezzo live HD


 

[Цитировать]

Léo Delibes - Coppélia, ballet en deux parties
(d'après Arthur Saint-Léon)

Год выпуска: 2011
Лейбл: Telmondis, Mezzo
Страна-производитель: France
Жанр: Ballet
Продолжительность: 1:34:55
Théatre: Opéra National de Paris
Choréographie: Patrice Bart
Decors et costumes: Ezio Toffolutti
Lumières: Yves Bernard
Исполнители:
Swanilda – Dorothée Gilbert
Frantz – Mathias Heymann
Coppélius – José Martinez
Spalanzani – Fabrice Bourgeois
Paris National Opera Ballet
Orchestre Colonne
Koen Kessels, direction musicale
Recorded live from the Palais Garnier, March 2011
Качество видео: HDTV
Формат/Контейнер: TS
Видео кодек: H.264
Аудио кодек: AC3
Видео поток: AVC, 1920×1080i, 9427 Kbps, 25 fps
Аудио поток: AC3, 256 Kbps, 48.0 KHz, 2 channels

Скриншоты


MediaInfo

General
ID : 1 (0x1)
Complete name : G:\Torrent\Coppelia (Opera National de Paris) 2011.ts
Format : MPEG-TS
File size : 6.25 GiB
Duration : 1h 34mn
Overall bit rate mode : Variable
Overall bit rate : 9 427 Kbps
Maximum Overall bit rate : 35.5 Mbps
Video
ID : 4113 (0x1011)
Menu ID : 1 (0x1)
Format : AVC
Format/Info : Advanced Video Codec
Format profile : High@L4.0
Format settings, CABAC : Yes
Format settings, ReFrames : 3 frames
Codec ID : 27
Duration : 1h 34mn
Bit rate : 8 703 Kbps
Width : 1 920 pixels
Height : 1 080 pixels
Display aspect ratio : 16:9
Frame rate : 25.000 fps
Standard : Component
Color space : YUV
Chroma subsampling : 4:2:0
Bit depth : 8 bits
Scan type : Interlaced
Scan order : Top Field First
Bits/(Pixel*Frame) : 0.168
Stream size : 5.77 GiB (92%)
Color primaries : BT.709
Transfer characteristics : BT.709
Matrix coefficients : BT.709
Audio
ID : 4352 (0x1100)
Menu ID : 1 (0x1)
Format : AC-3
Format/Info : Audio Coding 3
Mode extension : CM (complete main)
Format settings, Endianness : Big
Codec ID : 129
Duration : 1h 34mn
Bit rate mode : Constant
Bit rate : 256 Kbps
Channel(s) : 2 channels
Channel positions : Front: L R
Sampling rate : 48.0 KHz
Bit depth : 16 bits
Compression mode : Lossy
Stream size : 174 MiB (3%)
Language : French



Показать сообщения:    

Текущее время: 03-Дек 20:46

Часовой пояс: UTC + 3


Вы не можете начинать темы
Вы не можете отвечать на сообщения
Вы не можете редактировать свои сообщения
Вы не можете удалять свои сообщения
Вы не можете голосовать в опросах
Вы не можете прикреплять файлы к сообщениям
Вы не можете скачивать файлы