Танец и Квартет (Хайнц Шпёрли, Квартет Хаген) / Antonin Dvorak, Leos Janacek, Franz Schubert - Tanz & Quartett (Heinz Spoerli, Hagen Quartett) [2012, Modern ballet, HDTVRip]


 

[Цитировать]

Танец и Квартет / Tanz & Quartett
Год выпуска: 2012
Лейбл: Salzburger Festspielen
Страна-производитель: Австрия, Германия
Жанр: Modern ballet
Продолжительность: 01:34:05
Музыка: Антонин Дворжак (Antonín Dvorák), Леош Яначек (Leos Janácek), Франц Шуберт (Franz Schubert)
Исполнители музыки: Квартет Хаген / Hagen Quartett
Костюмы: Nelly van de Velden, Florian Etti, Heinz Spoerli
Режиссер/Хореограф: Хайнц Шпёрли / Heinz Spoerli
Треклист:
«Lettres intimes»
«In Spillville»
«Der Tod und das Mädchen»
Исполнители:
«Lettres intimes»
Музыка: Леош Яначек - "Струнный квартет №2 "Интимные письма"
(Leos Janácek - Streichquartett Nr. 2 "Intime Briefe");
Исполнители: Seh Yun Kim, Arsen Mehrabyan,
Балет Цюрихского оперного театра (Ballettensemble der Züricher Oper),
Струнный Квартет Хаген (Hagen Quartett)
«In Spillville»
Музыка: Антонин Дворжак - Струнный квартет фа мажор, соч. 96 "Американский"
(Antonín Dvorák - Streichquartett F-Dur op. 96 "Amerikanisches");
Исполнители: Sarah-Jane Brodbeck, Tigran Mikayelyan,
Балет Цюрихского оперного театра (Ballettensemble der Züricher Oper),
Струнный Квартет Хаген (Hagen Quartett)
«Der Tod und das Mädchen»
Музыка: Франц Шуберт - Струнный квартет ре минор, D810 "Смерть и девушка"
(Franz Schubert - Streichquartett d-Moll D810 "Der Tod und das Mädchen").
Исполнители: Yen Han, Arsen Mehrabyan,
Балет Цюрихского оперного театра (Ballettensemble der Züricher Oper),
Струнный Квартет Хаген (Hagen Quartett)
Описание: Данные балеты были представлены на Зальцбургском фестивале в 2012 году.
Доп. информация: Запись трансляции осуществлена alex7, за что ему от всех огромное спасибо.
Качество видео: HDTVRip
Формат/Контейнер: MPEG4
Видео кодек: H.264
Аудио кодек: AC3
Видео поток: MPEG4 Video (H264) 1280x720 25.00fps
Аудио поток: Dolby AC3 48000Hz 6ch 384 Kbps
семпл http://multi-up.com/851629

Mediainfo

Format : Matroska
File size : 4.21 GiB
Duration : 1h 34mn
Overall bit rate : 6 410 Kbps
Writing application : Lavf51.12.1
Writing library : Lavf51.12.1
Video
ID : 1
Format : AVC
Format/Info : Advanced Video Codec
Format profile : Baseline@L1.3
Format settings, CABAC : No
Format settings, ReFrames : 1 frame
Muxing mode : Container profile=Unknown@1.3
Codec ID : V_MPEG4/ISO/AVC
Duration : 1h 34mn
Bit rate : 5 898 Kbps
Width : 1 280 pixels
Height : 720 pixels
Display aspect ratio : 16:9
Frame rate : 25.000 fps
Color space : YUV
Chroma subsampling : 4:2:0
Bit depth : 8 bits
Scan type : Progressive
Bits/(Pixel*Frame) : 0.256
Stream size : 3.88 GiB (92%)
Audio
ID : 2
Format : AC-3
Format/Info : Audio Coding 3
Mode extension : CM (complete main)
Codec ID : A_AC3
Duration : 1h 34mn
Bit rate mode : Constant
Bit rate : 384 Kbps
Channel(s) : 6 channels
Channel positions : Front: L C R, Side: L R, LFE
Sampling rate : 48.0 KHz
Bit depth : 16 bits
Stream size : 258 MiB (6%)
Language : English

Скриншоты




Показать сообщения:    

Текущее время: 08-Дек 07:09

Часовой пояс: UTC + 3


Вы не можете начинать темы
Вы не можете отвечать на сообщения
Вы не можете редактировать свои сообщения
Вы не можете удалять свои сообщения
Вы не можете голосовать в опросах
Вы не можете прикреплять файлы к сообщениям
Вы не можете скачивать файлы