Стулья в снегу / Stühle im Schnee / Chairs in the Snow (Хоррис / Horris) [2007, Германия, короткометражка, триллер, драма, арт, DVDRip] + Sub Rus + Original Ger


Статистика раздачи [Обновить пиров]
Размер:  500 MB   |    Зарегистрирован:  10 месяцев 10 дней   |    Скачан:  3 раза

Полного источника не было: 1 день 5 часов

Личеров:  6  [  0 KB/s  ]   Подробная статистика пиров
 
   
 
 
 

[Цитировать]

Стулья в снегу / Stühle im Schnee / Chairs in the Snow
Страна: Германия
Жанр: короткометражка, триллер, драма, арт
Год выпуска: 2007
Продолжительность: 00:27:42
Перевод: Субтитры: creo140
Cубтитры: русские
Оригинальная аудиодорожка: немецкий
Режиссер: Хоррис / Horris
В ролях: Йозефине Пройсс, Александр Штернберг
Описание: Если верить в чудеса, то они обязательно сбываются
Доп. информация: http://www.kinopoisk.ru/film/451899/
http://www.imdb.com/title/tt1356932/
Сэмпл: http://yadi.sk/d/_svrv_vc3xPsq
Качество видео: DVDRip
Формат видео: AVI
Видео: 1024x576 (1.78:1), 23.976 fps, XviD build 46 ~2383 kbps avg, 0.17 bit/pixel
Аудио: 44.100 kHz, MPEG Layer 3, 2 ch, ~128.00 kbps avg
Формат субтитров: softsub (SRT)

MediaInfo

Формат : AVI
Формат/Информация : Audio Video Interleave
Размер файла : 500 MiB
Продолжительность : 27mn 42s
Общий поток : 2 525 Kbps
Программа кодирования : Lavf51.12.1
Video
Идентификатор : 0
Формат : xvid
Идентификатор кодека : xvid
Продолжительность : 27mn 42s
Битрейт : 2 384 Kbps
Ширина : 1 024 pixels
Высота : 576 pixels
Соотношение сторон : 16:9
Частота кадров : 23.976 fps
Бит/(Пиксели*Кадры) : 0.169
Размер потока : 473 MiB (94%)
Audio
Идентификатор : 1
Формат : MPEG Audio
Версия формата : Version 1
Профиль формата : Layer 3
Режим : Joint stereo
Идентификатор кодека : 55
Идентификатор кодека/Подсказка : MP3
Продолжительность : 27mn 42s
Вид битрейта : Constant
Битрейт : 128 Kbps
Каналы : 2 channels
Частота : 44.1 KHz
Метод сжатия : Lossy
Размер потока : 25.4 MiB (5%)
Выравнивание : Aligned on interleaves
Продолжительность промежутка : 26 ms (0.63 video frame)
Библиотека кодирования : LAME3.97

Скриншот c названием фильма

Фрагмент субтитров

19
00:01:24,420 --> 00:01:25,680
Рыцарь продолжал...
20
00:01:26,220 --> 00:01:28,130
"Но я не трусливый человек
21
00:01:28,400 --> 00:01:32,590
И поэтому я дам тебе возможность
победить меня и освободиться."
22
00:01:34,100 --> 00:01:37,430
Рыцарь хлопнул в ладоши и
тяжелая входная дверь открылась.
23
00:01:37,960 --> 00:01:39,280
С резким дуновением ветра
снежинки впорхнули внутрь,
24
00:01:39,460 --> 00:01:41,280
А потом появились животные,
25
00:01:41,280 --> 00:01:44,520
Все лапы и копыта,
которые были в этом мире.
26
00:01:45,120 --> 00:01:47,260
"Ты можешь выбрать одно животное.
27
00:01:47,480 --> 00:01:49,750
Ты можешь отправить одно животное за пределы замка
28
00:01:50,040 --> 00:01:52,320
И если животное перехитрит моих охотников и стрелков
[teatrix.ru].t15157.torrent 
Торрент: Зарегистрирован [ 2016-03-14 00:55 ] · 6BF338AE1650A9605B46E25F978AF387B79F841B

Скачать .torrent

Скачать

20 KB

Статус: проверено
Скачан: 3 раз
Размер: 500 MB
terms.php



Быстрый ответ

Имя:

      
Для отправки сообщений необходимо включить JavaScript
Показать сообщения:    

Текущее время: 24-Янв 12:13

Часовой пояс: UTC + 3


Вы можете начинать темы
Вы можете отвечать на сообщения
Вы не можете редактировать свои сообщения
Вы не можете удалять свои сообщения
Вы не можете голосовать в опросах
Вы не можете прикреплять файлы к сообщениям
Вы можете скачивать файлы