Приют комедиантов. Выпуск 42. Актерские страхи (Сергей Варновский) [2013, Россия, Капустник, SATRip]


Статистика раздачи [Обновить пиров]
Размер:  1.1 GB   |    Зарегистрирован:  8 месяцев 21 день   |    Скачан:  0 раз

Полного источника не было: Никогда

 
   
 
 
 

[Цитировать]

Приют комедиантов. Выпуск 42. Актерские страхи
Страна: Россия
Жанр: Капустник
Год выпуска: 2013
Продолжительность: 01:29:50
Производство: ООО "Эксклюзив ТВ".
Режиссёр: Сергей Варновский
Ведущие: Екатерина Уфимцева, Михаил Швыдкой.
В ролях: Валерий Гаркалин, Татьяна Догилева, Ирина Апексимова, Лидия Вележева, Михаил Полицеймако, Даниил Спиваковский, Эвклид Кюрдзидис и другие.
Описание: "Актёрские страхи". В этом выпуске "Приюта комедиантов" гости программы откроют один из своих самых сокровенных секретов: чего они больше всего боятся на сцене, на съёмках и в жизни.
Актёрские страхи – они какие-то особенные или такие же, как у всех? Какой страшный сон вот уже много лет мучает Ирину Апексимову? Почему Даниил Спиваковский боится высоты, а Лидия Вележева нелётной погоды? Кто избил Ирину Медведеву прямо во время спектакля и правда ли, что актёрская профессия является одной из самых опасных?
А ещё зрители узнают, как режиссёр Алексей Герман по просьбе Георгия Товстоногова и при помощи друга и нескольких бутылок водки изображал крик… сурка; где Владимир Долинский обсуждал с Гитлером судьбу известного ясновидящего; почему Елена Валюшкина после несчастного случая, произошедшего с ней в Риге, попала на страницы всех местных газет; как Валерий Гаркалин исполнил заглавную песню в спектакле на "албанском" языке; почему Сергей Шустицкий боится утратить чувство страха… Кроме того, по традиции, в "Приюте комедиантов" прозвучит много песен, в исполнении как самих популярных артистов, так и их учеников.
Доп. информация:
Премьерный эфир 1 мая 2013
Семпл: http://multi-up.com/861481
Качество видео: SATRip
Формат видео: AVI
Видео: 704x528 (1.33:1), 25 fps, XviD build 50 ~1559 kbps avg, 0.17 bit/pixel
Аудио: 48 kHz, MPEG Layer 3, 2 ch, ~192.00 kbps avg

MediaInfo

Общее
Полное имя : 42.Prijut.komediantov.Actjorskije.Strakhi.Satrip.by.igor0mr.avi
Формат : AVI
Формат/Информация : Audio Video Interleave
Профиль формата : OpenDML
Размер файла : 1,10 Гбайт
Продолжительность : 1 ч. 29 м.
Общий поток : 1758 Кбит/сек
Программа кодирования : MEncoder SVN-r33883(20110719-gcc4.5.2)
Библиотека кодирования : MPlayer
Видео
Идентификатор : 0
Формат : MPEG-4 Visual
Профиль формата : Advanced Simple@L5
Параметр BVOP формата : 2
Параметр QPel формата : Нет
Параметр GMC формата : Без точки перехода
Параметр матрицы формата : Default (H.263)
Идентификатор кодека : XVID
Идентификатор кодека/Подсказка : XviD
Продолжительность : 1 ч. 29 м.
Битрейт : 1550 Кбит/сек
Ширина : 704 пикселя
Высота : 528 пикселей
Соотношение сторон : 4:3
Соотношение сторон в оригинале : 4:3
Частота кадров : 25,000 кадров/сек
Цветовое пространство : YUV
Субдискретизация насыщенности : 4:2:0
Битовая глубина : 8 бит
Тип развёртки : Прогрессивная
Метод сжатия : С потерями
Бит/(Пиксели*Кадры) : 0.167
Размер потока : 996 Мбайт (88%)
Библиотека кодирования : XviD 1.2.1 (UTC 2008-12-04)
Аудио
Идентификатор : 1
Формат : MPEG Audio
Версия формата : Version 1
Профиль формата : Layer 3
Режим : Joint stereo
Расширение режима : MS Stereo
Идентификатор кодека : 55
Идентификатор кодека/Подсказка : MP3
Продолжительность : 1 ч. 29 м.
Вид битрейта : Постоянный
Битрейт : 192 Кбит/сек
Каналы : 2 канала
Частота : 48,0 КГц
Метод сжатия : С потерями
Задержка видео : 40 мс.
Размер потока : 123 Мбайт (11%)
Выравнивание : Соединение по промежуткам
Продолжительность промежутка : 24 мс. (0,60 видеокадр)
Время предзагрузки промежутка : 504 мс.

Скриншот с названием постановки

Скриншоты


[teatrix.ru].t15172.torrent 
Торрент: Зарегистрирован [ 2016-03-14 00:55 ] · CAE13BBD0C60418191488A75DE499D7CD0F8CD1A

Скачать .torrent

Скачать

12 KB

Статус: проверено
Скачан: 0 раз
Размер: 1.1 GB
terms.php



Быстрый ответ

Имя:

      
Для отправки сообщений необходимо включить JavaScript
Показать сообщения:    

Текущее время: 04-Дек 17:18

Часовой пояс: UTC + 3


Вы можете начинать темы
Вы можете отвечать на сообщения
Вы не можете редактировать свои сообщения
Вы не можете удалять свои сообщения
Вы не можете голосовать в опросах
Вы не можете прикреплять файлы к сообщениям
Вы можете скачивать файлы