В гостях у Эльдара Рязанова. "Главное - ответное движение души..." Творческий вечер Сергея Урсуляка (Эмма Абайдулина, Елена Никитан) [2013 г., Творческий вечер, SATRip] Киноклуб "Эльдар"


Статистика раздачи [Обновить пиров]
Размер:  827 MB   |    Зарегистрирован:  8 месяцев 26 дней   |    Скачан:  0 раз

Полного источника не было: Никогда

 
   
 
 
 

[Цитировать]

В гостях у Эльдара Рязанова. "Главное - ответное движение души..." Творческий вечер Сергея Урсуляка
Киноклуб "Эльдар".
Год выпуска: 2013.
Страна: Россия .
Выпущено: ГТРК "Культура".
Жанр: Творческий вечер.
Продолжительность: 01:01:12.
Режиссёр вечера: Эмма Абайдулина.
Режиссёр телеверсии: Елена Никитан.
Оператор-постановщик: Виктор Браздников.
В программе использованы фрагменты художественных фильмов Сергея Урсуляка «Русский регтайм» (1993 год), «Летние люди» (1995 год) (киностудия "Кремлин Филмз"), "Сочинение ко Дню Победы" (1998 год), "Долгое прощание" (2004 год) (Киностудия имени Довженко), «Жизнь и судьба» (2012 год) (Телеканал "Россия 1".
Участники вечера:
Михаил Ширвиндт, Сергей Пускепалис, Павел Любимцев, Полина Агуреева, Евгений Дятлов, Константин Лавроненко, Лика Нифонтова, Наталья Рожкова, Вера Таривердиева и др.
Описание:
"Русский регтайм", "Сочинение ко Дню Победы", "Долгое прощание", "Ликвидация", "Исаев", "Жизнь и судьба" – это фильмы режиссёра Сергея Урсуляка. Каждый из них достоин отдельного разговора, их знают и любят зрители.
А начинал Урсуляк с профессии актёра, много лет служил в театре "Сатирикон". Затем была учёба в мастерской Владимира Мотыля на Высших Режиссёрских курсах, работа на телевидении и, наконец, кинодебют - "Русский регтайм". Недавняя премьера Сергея Урсуляка - многосерийный телевизионный фильм "Жизнь и судьба" по роману Василия Гроссмана – это безусловно работа Мастера.

Дополнительная информация:

Трансляция ГТРК "Культура" в 20:05 03.05.2013 г.
Релиз
Рип lesik689 .
Качество видео:...SATRip
Формат:.................AVI
Видео:..704x416 (1.69:1), 25 fps, XviD MPEG-4 ~1688 kbps avg, 0.23 bit/pixel
Аудио:..48 kHz, AC3 Dolby Digital, 2/0 (L,R) ch, ~192 kbps

Отчет MediaInfo

General
Complete name : V.gostjah.u.Eldara.Rjazanova.Tvorchesky.vecher.Sergeja.Ursuljaka.2013.XviD.SATRip.fenixclub.avi
Format : AVI
Format/Info : Audio Video Interleave
File size : 827 MiB
Duration : 1h 1mn
Overall bit rate : 1 890 Kbps
Writing application : VirtualDubMod 1.5.10.2 (build 2542/release)
Writing library : VirtualDubMod build 2542/release
Video
ID : 0
Format : MPEG-4 Visual
Format profile : Advanced Simple@L5
Format settings, BVOP : 2
Format settings, QPel : No
Format settings, GMC : No warppoints
Format settings, Matrix : Default (H.263)
Muxing mode : Packed bitstream
Codec ID : XVID
Codec ID/Hint : XviD
Duration : 1h 1mn
Bit rate : 1 688 Kbps
Width : 704 pixels
Height : 416 pixels
Display aspect ratio : 5:4
Original display aspect ratio : 1.692
Frame rate : 25.000 fps
Color space : YUV
Chroma subsampling : 4:2:0
Bit depth : 8 bits
Scan type : Progressive
Compression mode : Lossy
Bits/(Pixel*Frame) : 0.231
Stream size : 739 MiB (89%)
Writing library : XviD 64
Audio
ID : 1
Format : AC-3
Format/Info : Audio Coding 3
Mode extension : CM (complete main)
Format settings, Endianness : Big
Codec ID : 2000
Duration : 1h 1mn
Bit rate mode : Constant
Bit rate : 192 Kbps
Channel(s) : 2 channels
Channel positions : Front: L R
Sampling rate : 48.0 KHz
Bit depth : 16 bits
Compression mode : Lossy
Stream size : 84.1 MiB (10%)
Alignment : Aligned on interleaves
Interleave, duration : 40 ms (1.00 video frame)
Interleave, preload duration : 512 ms

Скриншот с названием

Скриншоты


Альтернативный хост


[teatrix.ru].t15174.torrent 
Торрент: Зарегистрирован [ 2016-03-14 00:54 ] · 4F2631064E34D9831B9DC9512375BBB49AF95366

Скачать .torrent

Скачать

17 KB

Статус: проверено
Скачан: 0 раз
Размер: 827 MB
terms.php



Быстрый ответ

Имя:

      
Для отправки сообщений необходимо включить JavaScript
Показать сообщения:    

Текущее время: 09-Дек 08:47

Часовой пояс: UTC + 3


Вы можете начинать темы
Вы можете отвечать на сообщения
Вы не можете редактировать свои сообщения
Вы не можете удалять свои сообщения
Вы не можете голосовать в опросах
Вы не можете прикреплять файлы к сообщениям
Вы можете скачивать файлы