Это не фильм про ковбоев / Это вам не ковбойское кино / Это не фильм о ковбоях / Ce n'est pas un film de cow-boys (Бенжамен Парен / Benjamin Parent) [2012, Франция, комедия, драма, гей-тема, короткий метр, DVB] Original (Fre) + Sub (rus)


Статистика раздачи [Обновить пиров]
Размер:  208 MB   |    Зарегистрирован:  8 месяцев 25 дней   |    Скачан:  0 раз

Полного источника не было: Никогда

 
   
 
 
 

[Цитировать]

Это не фильм про ковбоев
Ce n'est pas un film de cow-boys- Страна: Франция
Жанр: комедия, драма, гей-тема, короткий метр
Год выпуска: 2012
Продолжительность: 00:11:15
Перевод: Субтитры (перевод К. Семенюк, Éclair Group)
Cубтитры: русские
Оригинальная аудиодорожка: французский
Режиссер: Бенжамен Парен / Benjamin ParentВ ролях: Финнегэн Олдфилд / Finnegan Oldfield (Vincent), Мальвай Яку / Malivaï Yakou (Moussa), Лейла Шукри / Leïla Choukri (Jessika), Гаранс Мариллье / Garance Marillier (Nadia)
Описание: В этом небольшом фильме поднимается серьезная проблема осознания права выбора другого человека его сексуальных предпочтений.
Вчера по телевизору транслировался фильм "Горбатая гора". Венсан был потрясён. Он пользуется переменой и интимностью школьного туалета, чтобы рассказать трогательно и с наивностью содержание фильма Муссе. За стеной, в женском туалете, Джессика, также тронутая фильмом, пользуется возможностью, чтобы задать Наде вопросы о её отце-гомосексуалисте. (exvet)
Доп. информация: Запись со спутника (канал TV5MONDE). В отличие от имеющегося на трекере SATRip с любительским переводом (субтитры), в данной раздаче несжатый цифровой поток с большим в полтора раза размером кадра и более правильным проф. переводом канала TV5MONDE (субтитры). На территории РФ возрастное ограничение 18+.
Награды: приз Queer Palm - Cannes Film Festival 2012 за лучшую короткометражку; Гран-при Melbourne International Film Festival 2012 за лучшую короткометражку; Prix Aquitaine - Sarlat International Cinema Festival 2012 в секции короткометражных фильмов; приз лучшему актеру (Finnegan Oldfield) ADAMI Award - Clermont-Ferrand Short Film Festival 2012; номинация на "Сезар" 2013 в категории "Лучшая короткометражка".
Информация: http://www.imdb.com/title/tt2271243/
Сэмпл: http://multi-up.com/864063

Сравнение скриншотов

http://screenshotcomparison.com/comparison/22985

Качество видео: DVB
Формат видео: MPEG-PS
Видео: MPEG Video 2, 720x576@1024x576 (16:9), 25 fps, ~2330 kbps avg, 0.225 bit/pixel
Аудио: Французский (48 kHz, MPEG Audio 2, 2 ch, ~192.00 kbps avg)
Формат субтитров: hardsub (неотключаемые)

MediaInfo

Полное имя                               : H:\My Torrents\[apreder]MINI_MOVIE_008\[apreder]MM_Ce_n'est_pas_un_film_de_cow-boys(2012)DVB.mpg
Формат : MPEG-PS
Размер файла : 208 Мбайт
Продолжительность : 11 м.
Режим общего битрейта : Переменный
Общий поток : 2573 Кбит/сек
Видео
Идентификатор : 224 (0xE0)
Формат : MPEG Video
Версия формата : Version 2
Профиль формата : Main@Main
Параметр BVOP формата : Да
Параметр матрицы формата : Выборочная
Параметр GOP формата : M=3, N=24
Продолжительность : 11 м.
Вид битрейта : Переменный
Битрейт : 2330 Кбит/сек
Ширина : 720 пикселей
Высота : 576 пикселей
Соотношение сторон : 16:9
Частота кадров : 25,000 кадров/сек
Стандарт вещания : PAL
Цветовое пространство : YUV
Субдискретизация насыщенности : 4:2:0
Битовая глубина : 8 бит
Тип развёртки : Прогрессивная
Порядок развёртки : Верхнее поле первое
Метод сжатия : С потерями
Бит/(Пиксели*Кадры) : 0.225
TimeCode_FirstFrame : 00:00:00:00
TimeCode_Source : Group of pictures header
Размер потока : 188 Мбайт (91%)
Аудио
Идентификатор : 192 (0xC0)
Формат : MPEG Audio
Версия формата : Version 1
Профиль формата : Layer 2
Продолжительность : 11 м.
Вид битрейта : Постоянный
Битрейт : 192 Кбит/сек
Каналы : 2 канала
Частота : 48,0 КГц
Метод сжатия : С потерями
Размер потока : 15,5 Мбайт (7%)

Скриншот c названием фильма

Скриншоты

Скриншоты анаморфированные

-732/714√
[teatrix.ru].t15176.torrent 
Торрент: Зарегистрирован [ 2016-03-14 00:54 ] · 4FECE6E91282C6B443EA9F67F0F6BB58CC260AAB

Скачать .torrent

Скачать

17 KB

Статус: проверено
Скачан: 0 раз
Размер: 208 MB
terms.php



Быстрый ответ

Имя:

      
Для отправки сообщений необходимо включить JavaScript
Показать сообщения:    

Текущее время: 08-Дек 03:13

Часовой пояс: UTC + 3


Вы можете начинать темы
Вы можете отвечать на сообщения
Вы не можете редактировать свои сообщения
Вы не можете удалять свои сообщения
Вы не можете голосовать в опросах
Вы не можете прикреплять файлы к сообщениям
Вы можете скачивать файлы