Дети войны (Анатолий Пилюгин) [2011 г., Литературно-музыкальная композиция, TVRip]


Статистика раздачи [Обновить пиров]
Размер:  1.4 GB   |    Зарегистрирован:  8 месяцев 25 дней   |    Скачан:  0 раз

Полного источника не было: Никогда

 
   
 
 
 

[Цитировать]

Дети войныГод выпуска: 2011.
Страна: Россия .
Жанр: Литературно-музыкальная композиция.
Продолжительность: 02:37:16.
Автор и режиссер: Анатолий Пилюгин.
Государственный академический русский концертный оркестр "Боян".
Художественный руководитель:
Анатолий Полетаев.
Ведущий: Шамиль Закиров.
Исполнители:
Элина Быстрицкая, Василий Лановой, Александр Ведерников, Анатолий Полетаев, Александр Голобородько, Алексей Кузнецов, Михаил Рожков.
Описание:
Главная тема литературно-музыкальной композиции - Великая Отечественная Война.
В исполнении актеров прозвучат литературные, поэтические, музыкальные произведения, они поделятся со зрителями своими воспоминаниями о той тяжкой и страшной военной эпохе, на которую пришлось их детство.

Дополнительная информация:
Гала-концерт "Дети войны" состоялся 22 июня 2011 г. в театрально-концертном зале "Дворец на Яузе".

Релиз
Качество видео:...TVRip
Формат:.................AVI
Видео:..640x352 (1.82:1), 25 fps, XviD MPEG-4 ~1134 kbps avg, 0.20 bit/pixel
Аудио:..44.100 kHz, MPEG Layer 3, 2 ch, ~128.00 kbps avg

Отчет Media Info

Общее
Полное имя : Deti.voiny.2011.XviD.TVRip.fenixclub.avi
Формат : AVI
Формат/Информация : Audio Video Interleave
Размер файла : 1,40 Гбайт
Продолжительность : 2 ч. 37 м.
Общий поток : 1273 Кбит/сек
Программа кодирования : VirtualDubModRus 1.5.10.2 (build 2542/release)
Библиотека кодирования : VirtualDub build 34753/release
Видео
Идентификатор : 0
Формат : MPEG-4 Visual
Профиль формата : Advanced Simple@L5
Параметр BVOP формата : 2
Параметр QPel формата : Нет
Параметр GMC формата : Без точки перехода
Параметр матрицы формата : Default (MPEG)
Режим смешивания : Сжатый битовый поток
Идентификатор кодека : XVID
Идентификатор кодека/Подсказка : XviD
Продолжительность : 2 ч. 37 м.
Битрейт : 1135 Кбит/сек
Ширина : 640 пикселей
Высота : 352 пикселя
Соотношение сторон : 16:9
Частота кадров : 25,000 кадров/сек
Цветовое пространство : YUV
Субдискретизация насыщенности : 4:2:0
Битовая глубина : 8 бит
Тип развёртки : Прогрессивная
Метод сжатия : С потерями
Бит/(Пиксели*Кадры) : 0.202
Размер потока : 1,25 Гбайт (89%)
Библиотека кодирования : XviD 1.2.1 (UTC 2008-12-04)
Аудио
Идентификатор : 1
Формат : MPEG Audio
Версия формата : Version 1
Профиль формата : Layer 3
Режим : Joint stereo
Расширение режима : MS Stereo
Идентификатор кодека : 55
Идентификатор кодека/Подсказка : MP3
Продолжительность : 2 ч. 37 м.
Вид битрейта : Постоянный
Битрейт : 128 Кбит/сек
Каналы : 2 канала
Частота : 44,1 КГц
Метод сжатия : С потерями
Задержка видео : 200 мс.
Размер потока : 144 Мбайт (10%)
Выравнивание : Разделение по промежуткам
Продолжительность промежутка : 40 мс. (1,00 видеокадр)
Время предзагрузки промежутка : 500 мс.
Библиотека кодирования : LAME3.99

Скриншоты

Альтернативный хост

[teatrix.ru].t15177.torrent 
Торрент: Зарегистрирован [ 2016-03-14 00:54 ] · E8E7185E0B4F183F19E20BC6C99850142A64B465

Скачать .torrent

Скачать

14 KB

Статус: проверено
Скачан: 0 раз
Размер: 1.4 GB
terms.php



Быстрый ответ

Имя:

      
Для отправки сообщений необходимо включить JavaScript
Показать сообщения:    

Текущее время: 08-Дек 23:12

Часовой пояс: UTC + 3


Вы можете начинать темы
Вы можете отвечать на сообщения
Вы не можете редактировать свои сообщения
Вы не можете удалять свои сообщения
Вы не можете голосовать в опросах
Вы не можете прикреплять файлы к сообщениям
Вы можете скачивать файлы