Мой путь / Путь, который мне предстоит пройти / Ce chemin devant moi / This Path Ahead (Аме / Hame / Hamé) [2012, Франция, драма, короткий метр, DVB] Original (Fre) + Sub (rus)


Статистика раздачи [Обновить пиров]
Размер:  340 MB   |    Зарегистрирован:  8 месяцев 22 дня   |    Скачан:  1 раз

Полного источника не было: 5 месяцев 19 дней

 
   
 
 
 

[Цитировать]

Мой путь
Ce chemin devant moi- Страна: Франция
Жанр: драма, короткий метр
Год выпуска: 2012
Продолжительность: 00:16:46
Перевод: Субтитры (перевод И. Рыбкиной, Éclair Group)
Cубтитры: русские
Оригинальная аудиодорожка: французский
Режиссер: Аме / HaméВ ролях: Реда Катеб / Reda Kateb (Le fils aîné), Райхана Обермейер / Rayhana Obermeyer (La mère), Юссеф Мззи / Youssef Mzzi (Mehdi)
Описание: Лидер легендарной французской рэп-группы La Rumeur Mohamed Bourokba, больше известный по прозвищу Hamé, после успешного полнометражного дебюта "Чернила / De l'encre"
(2011) мастерски отобразил в коротком метре множество социальных проблем современной Франции.
Рабочий пригород Парижа. По улицам, где никогда не бывает спокойно, шарит полиция. Одним из вечеров между стражами порядка и местными молодчиками вспыхивает стычка. Мать-одиночка отправляет своего старшего незаконнорожденного сына, страдающего астмой, на поиски семнадцатилетнего младшего брата Мехди, любимца матери.
Доп. информация: Запись со спутника (канал TV5MONDE). Во время нефранцузской речи на экране дополнительно вшитые французские субтитры.
Награды: номинация на "Золотую пальмовую ветвь" Cannes Film Festival 2012 за лучшую короткометражку; номинация Muhr Arab Award - Dubai International Film Festival 2012 на лучшую короткометражку; награда Festival national et international du court métrage (Clermont-Ferrand) 2013 оператору + 12 номинаций.Информация: http://www.imdb.com/title/tt2368673/
Сэмпл: http://multi-up.com/875436
Качество видео: DVB
Формат видео: MPEG-PS
Видео: MPEG Video 2, 720x576@1024x576 (16:9), 25 fps, ~2578 kbps avg, 0.249 bit/pixel
Аудио: Французский (48 kHz, MPEG Audio 2, 2 ch, ~192.00 kbps avg)
Формат субтитров: hardsub (неотключаемые)

MediaInfo

Полное имя                               : H:\My Torrents\[apreder]MINI_MOVIE_008\[apreder]MM_Ce_chemin_devant_moi(2012)DVB.mpg
Формат : MPEG-PS
Размер файла : 340 Мбайт
Продолжительность : 16 м.
Режим общего битрейта : Переменный
Общий поток : 2826 Кбит/сек
Видео
Идентификатор : 224 (0xE0)
Формат : MPEG Video
Версия формата : Version 2
Профиль формата : Main@Main
Параметр BVOP формата : Да
Параметр матрицы формата : Выборочная
Параметр GOP формата : M=3, N=24
Продолжительность : 16 м.
Вид битрейта : Переменный
Битрейт : 2578 Кбит/сек
Ширина : 720 пикселей
Высота : 576 пикселей
Соотношение сторон : 16:9
Частота кадров : 25,000 кадров/сек
Стандарт вещания : PAL
Цветовое пространство : YUV
Субдискретизация насыщенности : 4:2:0
Битовая глубина : 8 бит
Тип развёртки : Прогрессивная
Порядок развёртки : Верхнее поле первое
Метод сжатия : С потерями
Бит/(Пиксели*Кадры) : 0.249
TimeCode_FirstFrame : 00:00:00:00
TimeCode_Source : Group of pictures header
Размер потока : 310 Мбайт (91%)
Аудио
Идентификатор : 192 (0xC0)
Формат : MPEG Audio
Версия формата : Version 1
Профиль формата : Layer 2
Продолжительность : 16 м.
Вид битрейта : Постоянный
Битрейт : 192 Кбит/сек
Каналы : 2 канала
Частота : 48,0 КГц
Метод сжатия : С потерями
Размер потока : 23,1 Мбайт (7%)

Скриншот c названием фильма

Скриншоты

Скриншоты анаморфированные

-794/776√
[teatrix.ru].t15186.torrent 
Торрент: Зарегистрирован [ 2016-03-14 00:54 ] · 0DE81165790911F22E60D8A98F8F3AD37912AE94

Скачать .torrent

Скачать

14 KB

Статус: проверено
Скачан: 1 раз
Размер: 340 MB
terms.php



Быстрый ответ

Имя:

      
Для отправки сообщений необходимо включить JavaScript
Показать сообщения:    

Текущее время: 05-Дек 17:35

Часовой пояс: UTC + 3


Вы можете начинать темы
Вы можете отвечать на сообщения
Вы не можете редактировать свои сообщения
Вы не можете удалять свои сообщения
Вы не можете голосовать в опросах
Вы не можете прикреплять файлы к сообщениям
Вы можете скачивать файлы