Особый урок / Урок / Une lecon particuliere / Une leçon particulière (Рафаэль Шевенман / Raphael Chevenement / Raphaël Chevènement) [2007, Франция, мелодрама, короткий метр, DVB] Original (Fre) + Sub (rus)


Статистика раздачи [Обновить пиров]
Размер:  199 MB   |    Зарегистрирован:  8 месяцев 25 дней   |    Скачан:  1 раз

Полного источника не было: 5 месяцев 22 дня

 
   
 
 
 

[Цитировать]

Особый урок
Une leçon particulière- Страна: Франция
Жанр: мелодрама, короткий метр
Год выпуска: 2007
Продолжительность: 00:10:09Перевод: Субтитры (перевод К. Семенюк, Éclair Group; стихотворение В. Гюго в переводе М. Кудинова)
Cубтитры: русские
Оригинальная аудиодорожка: французский
Режиссер: Рафаэль Шевенман / Raphaël Chevènement
В ролях: Сесиль Дютронк / Cécile Ducrocq (Eva), Рафаэль Гольдман / Raphaël Goldman (Cyril)
Описание: 16-летний Сирил на частном уроке французского языка, который ведет 27-летняя Ева, изучает любовное стихотворение Виктора Гюго "Старая песня о молодых днях" из цикла "Созерцания":
Покой мой Роза не смущала…
В лесу гуляли мы вдвоем,
Я рассуждал о чем-то вяло,
Теперь не помню уж о чем…
Доп. информация: TV5MONDE
Награды: приз UniFrance за лучший короткометражный фильм Festival de Cannes 2008; номинация на "Сезар" 2009 за лучший короткометражный фильм; 2 награды Festival du cinéma européen (Lille) 2008 (лучший сценарий; лучшая мужская роль); Специальный почетный приз COLCOA Film Festival 2009 за лучшую женскую роль в короткометражном фильме; еще 14 наград 10 кинофестивалей.
Информация: http://www.imdb.com/title/tt1256636/
Сэмпл: http://multi-up.com/880238
Качество видео: DVB-S
Формат видео: MPEG-PS
Видео: MPEG Video 2, 720x576@1024x576 (16:9), 25 fps, ~2483 kbps avg, 0.239 bit/pixel
Аудио: Французский (48 kHz, MPEG Audio 2, 2 ch, ~192.00 kbps avg)
Формат субтитров: hardsub (неотключаемые)

MediaInfo

Полное имя                               : H:\My Torrents\[apreder]MINI_MOVIE_008\[apreder]MM_Une_lecon_particuliere(2007)DVB.mpg
Формат : MPEG-PS
Размер файла : 199 Мбайт
Продолжительность : 10 м.
Режим общего битрейта : Переменный
Общий поток : 2729 Кбит/сек
Видео
Идентификатор : 224 (0xE0)
Формат : MPEG Video
Версия формата : Version 2
Профиль формата : Main@Main
Параметр BVOP формата : Да
Параметр матрицы формата : Выборочная
Параметр GOP формата : M=3, N=24
Продолжительность : 10 м.
Вид битрейта : Переменный
Битрейт : 2483 Кбит/сек
Ширина : 720 пикселей
Высота : 576 пикселей
Соотношение сторон : 16:9
Частота кадров : 25,000 кадров/сек
Стандарт вещания : PAL
Цветовое пространство : YUV
Субдискретизация насыщенности : 4:2:0
Битовая глубина : 8 бит
Тип развёртки : Прогрессивная
Порядок развёртки : Верхнее поле первое
Метод сжатия : С потерями
Бит/(Пиксели*Кадры) : 0.239
TimeCode_FirstFrame : 00:00:00:00
TimeCode_Source : Group of pictures header
Размер потока : 181 Мбайт (91%)
Аудио
Идентификатор : 192 (0xC0)
Формат : MPEG Audio
Версия формата : Version 1
Профиль формата : Layer 2
Продолжительность : 10 м.
Вид битрейта : Постоянный
Битрейт : 192 Кбит/сек
Каналы : 2 канала
Частота : 48,0 КГц
Метод сжатия : С потерями
Размер потока : 14,0 Мбайт (7%)

Скриншот c названием фильма

Скриншоты

Скриншоты анаморфированные

-819/801√
[teatrix.ru].t15187.torrent 
Торрент: Зарегистрирован [ 2016-03-14 00:53 ] · 3DAB3238E33D5E62708952B24825AB983B276EE6

Скачать .torrent

Скачать

16 KB

Статус: проверено
Скачан: 1 раз
Размер: 199 MB
terms.php



Быстрый ответ

Имя:

      
Для отправки сообщений необходимо включить JavaScript
Показать сообщения:    

Текущее время: 08-Дек 17:24

Часовой пояс: UTC + 3


Вы можете начинать темы
Вы можете отвечать на сообщения
Вы не можете редактировать свои сообщения
Вы не можете удалять свои сообщения
Вы не можете голосовать в опросах
Вы не можете прикреплять файлы к сообщениям
Вы можете скачивать файлы