Целое семейство / The Wholly Family (Terry Gilliam / Терри Гиллиам) [2011, Италия, Короткометражный, фантастика, комедия, гротеск, DVDRip] VO + Sub Rus


Статистика раздачи [Обновить пиров]
Размер:  294 MB   |    Зарегистрирован:  8 месяцев 27 дней   |    Скачан:  0 раз

Полного источника не было: Никогда

 
   
 
 
 

[Цитировать]

Целое семейство / The Wholly Family
Страна: Италия
Жанр: Короткометражный, фантастика, комедия, гротеск
Год выпуска: 2011
Продолжительность: 00:19:42
Перевод: Одноголосый закадровый
Cубтитры: русские
Оригинальная аудиодорожка: английский, итальянский
Режиссер: Terry Gilliam / Терри Гиллиам
В ролях: Дуглас Дин, Кристиана Капотонди, Николас Коннолли / Nicolas Connolly, Серджо Солли, Массимо Де Лука, Джузеппе Гавацци, Ренато Де Мария, Пьетро Ботте и др.
Описание: Семья туристов на улицах Неаполя. Из-за фигурки Пульчинеллы, которую хотел купить себе мальчик, начинается ссора, и в итоге Джейк оказывается запертым родителями в комнате отеля.
Сэмпл: http://multi-up.com/883000
Качество видео: DVDRip
Формат видео: AVI
Видео: 640x360 (1.78:1), 25 fps, XviD build 46 ~1752 kbps avg, 0.30 bit/pixel
Аудио 1: 48 kHz, MPEG Layer 3, 2 ch, ~192.00 kbps avg(Русский)
Аудио 2: 48 kHz, MPEG Layer 3, 2 ch, ~128.00 kbps avg(Английский, Итальянский)
Формат субтитров: softsub (SRT)
Доп. информация о субтитрах: Русские внешние (linyok)

MediaInfo

Общее
Полное имя : D:\Мои видеозаписи\Целое семейство\Wholly Family.avi
Формат : AVI
Формат/Информация : Audio Video Interleave
Размер файла : 294 Мбайт
Продолжительность : 19 м.
Общий поток : 2088 Кбит/сек
Программа кодирования : VirtualDubModRus 1.5.10.2 (build 2542/release)
Библиотека кодирования : VirtualDubMod build 2542/release
Видео
Идентификатор : 0
Формат : MPEG-4 Visual
Профиль формата : Simple@L3
Параметр BVOP формата : Нет
Параметр QPel формата : Нет
Параметр GMC формата : Без точки перехода
Параметр матрицы формата : Default (H.263)
Идентификатор кодека : XVID
Идентификатор кодека/Подсказка : XviD
Продолжительность : 19 м.
Битрейт : 1753 Кбит/сек
Ширина : 640 пикселей
Высота : 360 пикселей
Соотношение сторон : 16:9
Частота кадров : 25,000 кадров/сек
Цветовое пространство : YUV
Субдискретизация насыщенности : 4:2:0
Битовая глубина : 8 бит
Тип развёртки : Прогрессивная
Метод сжатия : С потерями
Бит/(Пиксели*Кадры) : 0.304
Размер потока : 247 Мбайт (84%)
Библиотека кодирования : XviD 1.1.2 (UTC 2006-11-01)
Аудио #1
Идентификатор : 1
Формат : MPEG Audio
Версия формата : Version 1
Профиль формата : Layer 3
Режим : Joint stereo
Расширение режима : MS Stereo
Идентификатор кодека : 55
Идентификатор кодека/Подсказка : MP3
Продолжительность : 19 м.
Вид битрейта : Постоянный
Битрейт : 192 Кбит/сек
Каналы : 2 канала
Частота : 48,0 КГц
Метод сжатия : С потерями
Размер потока : 27,1 Мбайт (9%)
Выравнивание : Соединение по промежуткам
Продолжительность промежутка : 40 мс. (1,00 видеокадр)
Время предзагрузки промежутка : 504 мс.
Библиотека кодирования : LAME3.98
Аудио #2
Идентификатор : 2
Формат : MPEG Audio
Версия формата : Version 1
Профиль формата : Layer 3
Режим : Joint stereo
Расширение режима : MS Stereo
Идентификатор кодека : 55
Идентификатор кодека/Подсказка : MP3
Продолжительность : 19 м.
Вид битрейта : Постоянный
Битрейт : 128 Кбит/сек
Каналы : 2 канала
Частота : 48,0 КГц
Метод сжатия : С потерями
Размер потока : 18,0 Мбайт (6%)
Выравнивание : Разделение по промежуткам
Продолжительность промежутка : 40 мс. (1,00 видеокадр)
Время предзагрузки промежутка : 500 мс.
Библиотека кодирования : LAME3.98

Скриншоты

[teatrix.ru].t15191.torrent 
Торрент: Зарегистрирован [ 2016-03-14 00:53 ] · CDF4F67A68F7F0D30EDFBA9346BE65CCF27FBB40

Скачать .torrent

Скачать

12 KB

Статус: проверено
Скачан: 0 раз
Размер: 294 MB
terms.php



Быстрый ответ

Имя:

      
Для отправки сообщений необходимо включить JavaScript
Показать сообщения:    

Текущее время: 10-Дек 19:42

Часовой пояс: UTC + 3


Вы можете начинать темы
Вы можете отвечать на сообщения
Вы не можете редактировать свои сообщения
Вы не можете удалять свои сообщения
Вы не можете голосовать в опросах
Вы не можете прикреплять файлы к сообщениям
Вы можете скачивать файлы