Дом Актёра. Мастер перевоплощения. Юбилейный вечер Всеволода Шиловского (Борис Кивелевич, Сергей Злобин) [2013 г., Юбилейный вечер, SATRip] Центральный дом актера им. А.А.Яблочкиной


Статистика раздачи [Обновить пиров]
Размер:  1007 MB   |    Зарегистрирован:  8 месяцев 27 дней   |    Скачан:  0 раз

Полного источника не было: Никогда

 
   
 
 
 

[Цитировать]

Дом Актёра. Мастер перевоплощения. Юбилейный вечер Всеволода Шиловского
Центральный дом актера им. А.А.Яблочкиной.
Год выпуска: 2013.
Страна: Россия .
Выпущено: ГТРК "Культура".
Жанр: Юбилейный вечер.
Продолжительность: 01:09:48.
Вечер подготовили: Людмила Черновская, Борис Кивелевич, Николай Ларкин.
Режиссёр телеверсии: Сергей Злобин.
Оператор-постановщик: Виктор Браздников.
Использованы фрагменты художественных фильмов: "Попса" (режиссер Е. Николаева, кинокомпания "Сатурн", 2005 год), "Узник замка Иф" ( режиссер Г. Юнгвальд-Хилькевич, "Одесская киностудия, 1998 год), Скорорсть" (режиссер Д. Светозаров, "Ленфильм", 1983 год), "Избранник судьбы" (режиссер В. Шиловский, Одесская киностудия, 1987 год), "Люди и тени" (режиссер В. Шиловский, киностудия имени Горького, 2001 год), "Приговор" (режиссер В. Шиловский, кмностудия "Голдфильм, 1993 год), "Кодекс бесчестия" (режиссер В. Шиловский, киностудия "Акво", 1993 год), телесериала "День за днем" (режиссер В. Шиловский, ЦТ СССР, 1971 год), документального фильма "Уходящая натура" (режиссер И. Шиловский, ООО "Синема 360", 2013 год).
Ведёт вечер Анна Шатилова.
Всеволода Шиловского поздравили с юбилеем:
Пётр Тодоровский (видеозапись), Александр Песков, Александр Жигалкин, Аристарх Ливанов, Борис Щербаков, Аглая Шиловская, Валентина Талызина, Дмитрий Харатьян, Мария Шукшина, Лариса Удовиченко, Алексей Булдаков, Римас Туминас и другие.
Описание:
"Повезло на учителей, друзей и любовь".
3-го июня 2013 года исполнилось 75 лет народному артисту России, актёру и режиссёру театра и кино, педагогу - Всеволоду Николаевичу Шиловскому.

Дополнительная информация:
В эфире 16.03.2013 года.
Релиз
Рип lesik689.
Качество видео: SATRip
Формат видео: AVI
Видео: 704x416 (1.69:1), 25 fps, XviD MPEG-4 ~1814 kbps avg, 0.25 bit/pixel
Аудио: 48 kHz, AC3 Dolby Digital, 2/0 (L,R) ch, ~192 kbps

Отчет Media Info

Общее
Полное имя : Dom.Aktera.Master.perevoploshchenija.Jubileyny.vecher.Vsevoloda.Shilovskogo.2013.XviD.SATRip.fenixclub.avi
Формат : AVI
Формат/Информация : Audio Video Interleave
Размер файла : 1007 Мбайт
Продолжительность : 1 ч. 9 м.
Общий поток : 2017 Кбит/сек
Программа кодирования : VirtualDubMod 1.5.10.2 (build 2542/release)
Библиотека кодирования : VirtualDubMod build 2542/release
Видео
Идентификатор : 0
Формат : MPEG-4 Visual
Профиль формата : Advanced Simple@L5
Параметр BVOP формата : 2
Параметр QPel формата : Нет
Параметр GMC формата : Без точки перехода
Параметр матрицы формата : Default (MPEG)
Режим смешивания : Сжатый битовый поток
Идентификатор кодека : XVID
Идентификатор кодека/Подсказка : XviD
Продолжительность : 1 ч. 9 м.
Битрейт : 1815 Кбит/сек
Ширина : 704 пикселя
Высота : 416 пикселей
Соотношение сторон : 5:4
Соотношение сторон в оригинале : 1,692
Частота кадров : 25,000 кадров/сек
Цветовое пространство : YUV
Субдискретизация насыщенности : 4:2:0
Битовая глубина : 8 бит
Тип развёртки : Прогрессивная
Метод сжатия : С потерями
Бит/(Пиксели*Кадры) : 0.248
Размер потока : 906 Мбайт (90%)
Библиотека кодирования : XviD 64
Аудио
Идентификатор : 1
Формат : AC-3
Формат/Информация : Audio Coding 3
Расширение режима : CM (complete main)
Параметр Endianness формата : Big
Идентификатор кодека : 2000
Продолжительность : 1 ч. 9 м.
Вид битрейта : Постоянный
Битрейт : 192 Кбит/сек
Каналы : 2 канала
Расположение каналов : Front: L R
Частота : 48,0 КГц
Битовая глубина : 16 бит
Метод сжатия : С потерями
Размер потока : 95,8 Мбайт (10%)
Выравнивание : Соединение по промежуткам
Продолжительность промежутка : 40 мс. (1,00 видеокадр)
Время предзагрузки промежутка : 512 мс.

Скриншоты


Альтернативный хост


[teatrix.ru].t15192.torrent 
Торрент: Зарегистрирован [ 2016-03-14 00:53 ] · BC677D30A92602F46F23EDA29D98A167DCE58C70

Скачать .torrent

Скачать

20 KB

Статус: проверено
Скачан: 0 раз
Размер: 1007 MB
terms.php



Быстрый ответ

Имя:

      
Для отправки сообщений необходимо включить JavaScript
Показать сообщения:    

Текущее время: 10-Дек 08:02

Часовой пояс: UTC + 3


Вы можете начинать темы
Вы можете отвечать на сообщения
Вы не можете редактировать свои сообщения
Вы не можете удалять свои сообщения
Вы не можете голосовать в опросах
Вы не можете прикреплять файлы к сообщениям
Вы можете скачивать файлы