Дом актера. Когда рождается актер (Владимир Иванов, Олег Загуменнов, Ирина Галынкина) [2005 г., Капустник, SATRip] Центральный дом актера им. А.А.Яблочкиной


Статистика раздачи [Обновить пиров]
Размер:  569 MB   |    Зарегистрирован:  8 месяцев 20 дней   |    Скачан:  0 раз

Полного источника не было: Никогда

 
   
 
 
 

[Цитировать]

Дом актера. Когда рождается актер
Центральный дом актера им. А.А.Яблочкиной.
Год выпуска: 2005.
Страна: Россия .
Выпущено: © Телекомпания "Альма Матер".
Жанр: Капустник.
Продолжительность: 00:38:34.
Режиссёры вечера: Владимир Иванов, Олег Загуменнов.
Режиссёр телеверсии: Сергей Злобин.
Операторы: Олег Шорох, Михаил Кожевников, Александр Савин, Вадим Бобров, Аркадий Захаров, Мария Сергеева.
Вступительное слово: Маргарита Эскина.
Участвуют:
Леонид Ярмольник, Юрий Васильев, Андрей Семенов, Арина Кирсанова, Мирослава Карпович, Николай Бенцлер, Павел Ворожцов, Татьяна Острягина, Елена Волгина, Марина Пьянова, Антон Коршунов, Артем Мазунов, Иван Просецкий.
Описание:
Сцена Дома актера продолжает свою традицию - продолжает открывать таланты. Вечер, посвящен будущему нашего театра - будущим актерам - студентам РАТИ (ГИТИС), Школы-Студии МХАТ им. А.Чехова, театрального института им. Б.Щукина, театрального института им. М.Щепкина, ВГИКа им. С.Герасимова.
Дополнительная информация:
В эфире 16.03.2013 года.
Релиз
Огромное спасибо ItarTass за предоставленый материал!!!
Качество видео: SATRip
Формат видео: AVI
Видео: 704x528 (1.33:1), 25 fps, XviD MPEG-4 ~1859 kbps avg, 0.20 bit/pixel
Аудио: 48 kHz, MPEG Layer 3, 2 ch, ~192.00 kbps avg

Отчет Media Info

Общее
Полное имя : Dom.aktera.Kogda.rozhdaetsya.akter.2005.XviD.SATRip.fenixclub.avi
Формат : AVI
Формат/Информация : Audio Video Interleave
Размер файла : 569 Мбайт
Продолжительность : 38 м.
Общий поток : 2052 Кбит/сек
Видео
Идентификатор : 0
Формат : MPEG-4 Visual
Профиль формата : Advanced Simple@L5
Параметр BVOP формата : 2
Параметр QPel формата : Нет
Параметр GMC формата : Без точки перехода
Параметр матрицы формата : Default (MPEG)
Режим смешивания : Сжатый битовый поток
Идентификатор кодека : XVID
Идентификатор кодека/Подсказка : XviD
Продолжительность : 38 м.
Битрейт : 1861 Кбит/сек
Ширина : 704 пикселя
Высота : 528 пикселей
Соотношение сторон : 4:3
Частота кадров : 25,000 кадров/сек
Цветовое пространство : YUV
Субдискретизация насыщенности : 4:2:0
Битовая глубина : 8 бит
Тип развёртки : Прогрессивная
Метод сжатия : С потерями
Бит/(Пиксели*Кадры) : 0.200
Размер потока : 513 Мбайт (90%)
Библиотека кодирования : XviD 1.2.1 (UTC 2008-12-04)
Аудио
Идентификатор : 1
Формат : MPEG Audio
Версия формата : Version 1
Профиль формата : Layer 3
Режим : Joint stereo
Расширение режима : MS Stereo
Идентификатор кодека : 55
Идентификатор кодека/Подсказка : MP3
Продолжительность : 38 м.
Продолжительность оригинала : 38 м.
Вид битрейта : Постоянный
Битрейт : 192 Кбит/сек
Каналы : 2 канала
Частота : 48,0 КГц
Метод сжатия : С потерями
Размер потока : 53,0 Мбайт (9%)
Выравнивание : Соединение по промежуткам
Продолжительность промежутка : 40 мс. (1,00 видеокадр)

Скриншоты

Альтернативный хост

[teatrix.ru].t15193.torrent 
Торрент: Зарегистрирован [ 2016-03-14 00:53 ] · B654F70CFA7D90FC94F55C99E802B5459EA0E5DF

Скачать .torrent

Скачать

12 KB

Статус: проверено
Скачан: 0 раз
Размер: 569 MB
terms.php



Быстрый ответ

Имя:

      
Для отправки сообщений необходимо включить JavaScript
Показать сообщения:    

Текущее время: 03-Дек 20:46

Часовой пояс: UTC + 3


Вы можете начинать темы
Вы можете отвечать на сообщения
Вы не можете редактировать свои сообщения
Вы не можете удалять свои сообщения
Вы не можете голосовать в опросах
Вы не можете прикреплять файлы к сообщениям
Вы можете скачивать файлы