Революция – это только начало. Борьба продолжается / La Revolution n'est qu'un debut. Continuons le combat (Пьер Клеманти / Pierre Clementi / Pierre Clémenti) [1968, Франция, документальный трактат, короткий метр, DVDRip] Sub (Rus)


Статистика раздачи [Обновить пиров]
Размер:  263 MB   |    Зарегистрирован:  8 месяцев 20 дней   |    Скачан:  0 раз

Полного источника не было: Никогда

Личеров:  8  [  0 KB/s  ]   Подробная статистика пиров
 
   
 
 
 

[Цитировать]

Революция – это только начало. Борьба продолжается
La Révolution n'est qu'un début. Continuons le combat- Страна: Франция, Италия
Жанр: документальный трактат, короткий метр
Год выпуска: 1968
Продолжительность: 00:22:13
Перевод: Субтитры (ralf124c41+)
Cубтитры: русские
Оригинальная аудиодорожка: музыкальное сопровождение
Режиссер: Пьер Клеманти / Pierre ClémentiВ ролях: Пьер Клеманти / Pierre Clémenti, Жан-Пьер Кальфон / Jean-Pierre Kalfon, Валери Лагранж / Valérie Lagrange, Маргарет Клеманти / Margareth Clémenti, Тина Омон / Tina Aumont, Бальтазар Клеманти / Balthazar Clémenti (le fils), Ив Бенэтон / Yves Beneyton
Описание: Фильм-трактат о событиях мая-июня 1968 года – Студенческой революции во Франции - социальном кризисе, вылившемся в демонстрации, массовые беспорядки и всеобщую забастовку, приведшим к смене правительства, отставке президента Шарля де Голля и к огромным изменениям во французском обществе.
Митингующие выдвигали конкретные политические требования. Среди них была отставка де Голля, а также формула "40 — 60 — 1000" (40-часовая рабочая неделя, пенсия в 60 лет, минимальный оклад в 1000 франков). Самый знаменитый лозунг молодежного протеста - "Запрещать запрещается".
Когда начались майские события, Клеманти находился в Италии, где снимался у Бернардо Бертолуччи в фильме "Партнёр". Актер срочно возвращается в Париж и успевает заснять происходящее на кинопленку. Связанный контрактом со студией Red Film, Клеманти вынужден вернуться в Италию для завершения съемок у Бертолуччи. В Италии он доснимает несколько сцен своего фильма и по горячим следам делает 22-минутный монтаж. Затем следуют напряженные съемки у Бунюэля, Девиля, Пазолини. А его собственный фильм оказывается на 30 лет забытым в подвале дома в Париже, где Клеманти когда-то снимал комнату, и был случайно обнаружен лишь в 1999 году, уже после смерти актера.-Пьер Клеманти (1942-1999) - французский актёр, режиссер, оператор, продюсер, композитор, писатель. Самая известная роль в кино — в фильме Луиса Бунюэля "Дневная красавица" (1967). Играл также в фильмах Лукино Висконти ("Леопард", 1963), Пьера Паоло Пазолини ("Свинарник", 1969), Бернардо Бертолуччи ("Партнёр", 1968, "Конформист", 1971), Душана Макавеева ("Сладкий фильм", 1974), Луиса Бунюэля ("Млечный путь", 1968), Мишеля Девиля ("Бенжамен, или Дневник девственника", 1968). Снял несколько независимых фильмов.-Фильмы Пьера Клеманти-Доп. информация: На территории РФ возрастное ограничение 18+. Файл получен через groups.yahoo. Сделан собственный перевод.
Информация: http://www.imdb.com/title/tt0401764/
Сэмпл: http://multi-up.com/888290
Качество видео: DVDRip
Формат видео: AVI
Видео: XviD, 704x528 (1.33:1), 25 fps, ATI YVU12 4:2:0 Planar ~1453 kbps avg, 0.156 bit/pixel
Аудио: 48 kHz, AC3 Dolby Digital, 2/0 (L,R) ch, ~192 kbps
Формат субтитров: softsub (SRT)
Доп. информация о субтитрах: forced (переведены вступительные титры, а также надписи и лозунги, появляющиеся на экране)

Пример субтитров

37
00:12:24,037 --> 00:12:27,842
Скоро 6 июня 1968
38
00:12:35,458 --> 00:12:44,392
Скоро любовь принесет свои плоды!
39
00:12:45,400 --> 00:12:52,085
Любовь 6 июня 1968
40
00:13:09,434 --> 00:13:13,017
Ив Армик
41
00:13:26,568 --> 00:13:30,474
Сладострастье любви.
42
00:13:39,307 --> 00:13:55,026
Сладкая жизнь в Риме.
43
00:14:00,540 --> 00:14:01,460
РИМ
44
00:14:01,561 --> 00:14:11,024
Каролина
45
00:14:11,025 --> 00:14:22,067
6 июня 1968,
убит сенатор Роберт Кеннеди.
46
00:14:59,205 --> 00:15:15,218
Прелестный Армик
47
00:15:19,543 --> 00:15:29,616
и столько сладостей.
48
00:15:31,273 --> 00:15:42,452
Отъезд в Париж.
49
00:17:56,092 --> 00:18:02,717
Май-июнь 1968
50
00:18:02,818 --> 00:18:32,668
Полицейская власть может
убить и выхолостить свободу.
51
00:18:32,669 --> 00:19:15,457
Революция - это только начало
непрерывной борьбы за свободу!
52
00:19:29,456 --> 00:19:36,727
Захват Дворца
Июнь 1968
53
00:19:58,938 --> 00:20:12,438
Наши окна открыты,
и мы видим происходящее.
54
00:20:45,884 --> 00:20:55,382
Искусство - дерьмо.
Этот фильм - дерьмо.
55
00:20:55,483 --> 00:21:13,453
Результат того, что называют
"Свободой самовыражения".
56
00:21:46,801 --> 00:21:54,432
Всего лишь -
продукт больного воображения.
57
00:22:08,625 --> 00:22:11,420
Конец

MediaInfo

Полное имя                               : H:\My Torrents\[apreder]La_Revolution_n'est_qu'un_debut.Continuons_le_combat(1968)DVDRip\[apreder]La_Revolution_n'est_qu'un_debut.Continuons_le_combat(1968)DVDRip.avi
Формат : AVI
Формат/Информация : Audio Video Interleave
Размер файла : 263 Мбайт
Продолжительность : 22 м.
Общий поток : 1655 Кбит/сек
Программа кодирования : VirtualDubMod 1.5.10.3 | www.virtualdub-fr.org || (build 2550/release)
Библиотека кодирования : VirtualDubMod build 2550/release
Видео
Идентификатор : 0
Формат : MPEG-4 Visual
Профиль формата : Advanced Simple@L5
Параметр BVOP формата : 2
Параметр QPel формата : Нет
Параметр GMC формата : Без точки перехода
Параметр матрицы формата : Default (H.263)
Идентификатор кодека : XVID
Идентификатор кодека/Подсказка : XviD
Продолжительность : 22 м.
Битрейт : 1453 Кбит/сек
Ширина : 704 пикселя
Высота : 528 пикселей
Соотношение сторон : 2,000
Соотношение сторон в оригинале : 4:3
Частота кадров : 25,000 кадров/сек
Цветовое пространство : YUV
Субдискретизация насыщенности : 4:2:0
Битовая глубина : 8 бит
Тип развёртки : Прогрессивная
Метод сжатия : С потерями
Бит/(Пиксели*Кадры) : 0.156
Размер потока : 231 Мбайт (88%)
Библиотека кодирования : XviD 64
Аудио
Идентификатор : 1
Формат : AC-3
Формат/Информация : Audio Coding 3
Расширение режима : CM (complete main)
Параметр Endianness формата : Big
Идентификатор кодека : 2000
Продолжительность : 22 м.
Вид битрейта : Постоянный
Битрейт : 192 Кбит/сек
Каналы : 2 канала
Расположение каналов : Front: L R
Частота : 48,0 КГц
Битовая глубина : 16 бит
Метод сжатия : С потерями
Размер потока : 30,5 Мбайт (12%)
Выравнивание : Разделение по промежуткам
Продолжительность промежутка : 40 мс. (1,00 видеокадр)
Время предзагрузки промежутка : 500 мс.

Скриншот c названием фильма

Скриншоты

Резервные скриншоты

-877/859√
[teatrix.ru].t15195.torrent 
Торрент: Зарегистрирован [ 2016-03-14 00:53 ] · D8373B24FBBE1729503ED92891F568DE1C9AF64B

Скачать .torrent

Скачать

11 KB

Статус: проверено
Скачан: 0 раз
Размер: 263 MB
terms.php



Быстрый ответ

Имя:

      
Для отправки сообщений необходимо включить JavaScript
Показать сообщения:    

Текущее время: 03-Дек 14:35

Часовой пояс: UTC + 3


Вы можете начинать темы
Вы можете отвечать на сообщения
Вы не можете редактировать свои сообщения
Вы не можете удалять свои сообщения
Вы не можете голосовать в опросах
Вы не можете прикреплять файлы к сообщениям
Вы можете скачивать файлы