Десятая заповедь / Visa de censure n° X (Пьер Клеманти / Pierre Clementi / Pierre Clémenti) [1967 - 1975, Франция, медиативная лирика, сюрреализм, DVDRip] Sub (Rus)


Статистика раздачи [Обновить пиров]
Размер:  709 MB   |    Зарегистрирован:  8 месяцев 25 дней   |    Скачан:  1 раз

Полного источника не было: 1 месяц 16 дней

Личеров:  4  [  0 KB/s  ]   Подробная статистика пиров
 
   
 
 
 

[Цитировать]

Десятая заповедь
Visa de censure n° X- Страна: Франция
Жанр: медиативная лирика, сюрреализм
Год выпуска: 1967 - 1975
Продолжительность: 00:42:25
Перевод: Субтитры (ralf124c41+)
Cубтитры: русские
Оригинальная аудиодорожка: музыкальное сопровождение
Режиссер: Пьер Клеманти / Pierre ClémentiВ ролях: Пьер Клеманти / Pierre Clémenti, Жан-Пьер Кальфон / Jean-Pierre Kalfon, Ив Бенэтон / Yves Beneyton, Валери Лагранж / Valérie Lagrange, Барбара Жирар / Barbara Girard, Маргарет Клеманти / Margareth Clémenti, Бальтазар Клеманти / Balthazar Clémenti (le fils), Джудит Малина / Judith Malina, Джонни Холлидей / Johnny Hallyday (cameo)
Описание: Режиссерский дебют Клеманти. Фильм был начат в 1967 г. и завершен 28 сентября 1975 г.
Поток лирических психоделических образов сопровождает повествование о семье и друзьях режиссера. Красочные импульсы изображения и музыки ввергают зрителя в соматическое состояние, когда физическое естество полностью соотносится с его душевными переживаниями. Будто приоткрыв страницы семейного альбома, режиссер рассказывает историю о жизни и смерти. Каскад изображений, разрезанных и склеенных рукой автора, создает эмоции на пределе восприятия. Это фильм о невинности и радости познания…
Эмоции, события и горечь Студенческой революции 1968-го года с течением времени становятся более осмысленными и наподобие старого вина приобретают выдержку и эпические черты. Неслучайно начальные титры появляются лишь в середине фильма после все ускоряющегося потока фрагментированных изображений и рваного ритма, будто разделяя повествование на два самостоятельных периода: "До" и "После" грехопадения, становящегося истинным созидающим началом бытия, подчиненного исключительно силе человеческой любви.-Пьер Клеманти (1942-1999) - французский актёр, режиссер, оператор, продюсер, композитор, писатель. Самая известная роль в кино — в фильме Луиса Бунюэля "Дневная красавица" (1967). Играл также в фильмах Лукино Висконти ("Леопард", 1963), Пьера Паоло Пазолини ("Свинарник", 1969), Бернардо Бертолуччи ("Партнёр", 1968, "Конформист", 1971), Душана Макавеева ("Сладкий фильм", 1974), Луиса Бунюэля ("Млечный путь", 1968), Мишеля Девиля ("Бенжамен, или Дневник девственника", 1968). Снял несколько независимых фильмов.-Фильмы Пьера Клеманти-Доп. информация: На территории РФ возрастное ограничение 18+. Файл получен через groups.yahoo. Сделан собственный перевод.
Информация: http://www.imdb.com/title/tt0201313/
Сэмпл: http://multi-up.com/888550
Качество видео: DVDRip
Формат видео: AVI
Видео: XviD, 704x528 (1.33:1), 25 fps, ATI YVU12 4:2:0 Planar ~2137 kbps avg, 0.230 bit/pixel
Аудио: 48 kHz, AC3 Dolby Digital, 2/0 (L,R) ch, ~192 kbps
Формат субтитров: softsub (SRT)
Доп. информация о субтитрах: forced (переведены заглавные титры, а также надписи и лозунги, появляющиеся на экране)

Пример субтитров

6
00:24:03,722 --> 00:24:11,912
Десятая заповедь
7
00:24:12,507 --> 00:24:17,450
Фильм
Пьера Клеманти
8
00:24:17,551 --> 00:24:20,760
26 ноября 1967
9
00:24:35,108 --> 00:24:35,845
Поздравительные открытки
10
00:26:15,474 --> 00:26:21,989
Линии судьбы.
Сила воображения.
11
00:26:22,090 --> 00:26:25,117
Революция продолжается
12
00:28:40,219 --> 00:28:49,920
Восточные сладости
13
00:29:06,523 --> 00:29:08,157
ПАРИЖ
14
00:29:09,950 --> 00:29:15,734
Сегодняшний Рай -
15
00:29:19,798 --> 00:29:25,513
это блаженное настоящее -
16
00:29:35,519 --> 00:29:39,290
- это сегодняшний Рай
17
00:29:45,305 --> 00:29:48,622
Свобода.
18
00:29:50,479 --> 00:29:52,274
Любовь
19
00:29:53,066 --> 00:29:54,820
Ты
20
00:31:03,735 --> 00:31:04,917
Рай
21
00:31:09,267 --> 00:31:16,946
Я могу написать
22
00:31:17,047 --> 00:31:30,594
о реалиях жизни.
23
00:33:50,918 --> 00:33:52,671
Любовь
24
00:37:10,337 --> 00:37:12,972
Музыка:
25
00:37:14,296 --> 00:37:15,862
Иван Кокетт и Сирилл Вердо
26
00:37:15,863 --> 00:37:18,915
Музыканты:

MediaInfo

Полное имя                               : H:\My Torrents\[apreder]Visa_de_censure_n_X(1967-1975)DVDRip\[apreder]Visa_de_censure_n_X(1967-1975)DVDRip.avi
Формат : AVI
Формат/Информация : Audio Video Interleave
Размер файла : 709 Мбайт
Продолжительность : 42 м.
Общий поток : 2338 Кбит/сек
Программа кодирования : VirtualDubMod 1.5.10.3 | www.virtualdub-fr.org || (build 2550/release)
Библиотека кодирования : VirtualDubMod build 2550/release
Видео
Идентификатор : 0
Формат : MPEG-4 Visual
Профиль формата : Advanced Simple@L5
Параметр BVOP формата : 2
Параметр QPel формата : Нет
Параметр GMC формата : Без точки перехода
Параметр матрицы формата : Default (H.263)
Идентификатор кодека : XVID
Идентификатор кодека/Подсказка : XviD
Продолжительность : 42 м.
Битрейт : 2137 Кбит/сек
Ширина : 704 пикселя
Высота : 528 пикселей
Соотношение сторон : 2,000
Соотношение сторон в оригинале : 4:3
Частота кадров : 25,000 кадров/сек
Цветовое пространство : YUV
Субдискретизация насыщенности : 4:2:0
Битовая глубина : 8 бит
Тип развёртки : Прогрессивная
Метод сжатия : С потерями
Бит/(Пиксели*Кадры) : 0.230
Размер потока : 648 Мбайт (91%)
Библиотека кодирования : XviD 64
Аудио
Идентификатор : 1
Формат : AC-3
Формат/Информация : Audio Coding 3
Расширение режима : CM (complete main)
Параметр Endianness формата : Big
Идентификатор кодека : 2000
Продолжительность : 42 м.
Вид битрейта : Постоянный
Битрейт : 192 Кбит/сек
Каналы : 2 канала
Расположение каналов : Front: L R
Частота : 48,0 КГц
Битовая глубина : 16 бит
Метод сжатия : С потерями
Размер потока : 58,3 Мбайт (8%)
Выравнивание : Разделение по промежуткам
Продолжительность промежутка : 40 мс. (1,00 видеокадр)
Время предзагрузки промежутка : 500 мс.

Скриншот c названием фильма

Скриншоты


Резервные скриншоты


-878/860√
[teatrix.ru].t15196.torrent 
Торрент: Зарегистрирован [ 2016-03-14 00:53 ] · C29ABE6E21546311F47F35830E7B3127BF472B27

Скачать .torrent

Скачать

14 KB

Статус: проверено
Скачан: 1 раз
Размер: 709 MB
terms.php



Быстрый ответ

Имя:

      
Для отправки сообщений необходимо включить JavaScript
Показать сообщения:    

Текущее время: 08-Дек 19:10

Часовой пояс: UTC + 3


Вы можете начинать темы
Вы можете отвечать на сообщения
Вы не можете редактировать свои сообщения
Вы не можете удалять свои сообщения
Вы не можете голосовать в опросах
Вы не можете прикреплять файлы к сообщениям
Вы можете скачивать файлы