Встречи с любимыми актерами. Алексей Гуськов [2002 г., Приложение к телеигре, TVRip]


Статистика раздачи [Обновить пиров]
Размер:  697 MB   |    Зарегистрирован:  8 месяцев 21 день   |    Скачан:  0 раз

Полного источника не было: Никогда

Личеров:  20  [  0 KB/s  ]   Подробная статистика пиров
 
   
 
 
 

[Цитировать]

Встречи с любимыми актерами. Алексей ГуськовГод выпуска: 2002.
Страна: Россия .
Выпущено: Саратовское телевидение, © СМИ «Телеигра «Маркиза».
Жанр: Приложение к телеигре.
Продолжительность: 01:00:48.
Автор и ведущий: Александр Динес.
Гость этой программы: актер Алексей Гуськов.
Описание:
"Маркиза" - это разлекательно-познавательная телеигра, выходящая на Саратовском телевидении с 1993 года. Она состоит из двух частей. В первой части зрители в студии угадывают авторов литературных произведений, сами произведения или их персонажей. Во второй части аудитории требуется определить личность гостя, приглашенного в студию. Как правило, в роли гостя выступает кто-либо из известных актеров, который специально приезжает в Саратов.
В данной раздаче представлено приложение к телеигре - встреча с любимыми актерами. Гость этой программы - актер Алексей Гуськов.
Алексей Гуськов отвечает на вопросы зрителей и ведущего, говорит о своей личной жизни, вспоминает о своих педагогах в школе-студии МХАТ, рассказывает о работе в фильмах: "Волкодав", "Таежный роман", "Мусорщик", о ролях в кино и в театре, высказывает свое мнение о профессии актера.

Дополнительная информация:
Релиз
Качество видео: TVRip
Формат видео: AVI
Видео: 688x512 (1.34:1), 25 fps, XviD MPEG-4 ~1464 kbps avg, 0.17 bit/pixel
Аудио: 44.100 kHz, MPEG Layer 3, 2 ch, ~128.00 kbps avg

Отчет Media Info

Общее
Полное имя : Vstrechi.s ljubimymi.aktjorami.Aleksei.Guskov.2002.XviD.TVRip.fenixclub.avi
Формат : AVI
Формат/Информация : Audio Video Interleave
Размер файла : 697 Мбайт
Продолжительность : 1 ч. 0 м.
Общий поток : 1603 Кбит/сек
Программа кодирования : VirtualDubModRus 1.5.10.2 (build 2542/release)
Библиотека кодирования : VirtualDubMod build 2542/release
Видео
Идентификатор : 0
Формат : MPEG-4 Visual
Профиль формата : Advanced Simple@L5
Параметр BVOP формата : 2
Параметр QPel формата : Нет
Параметр GMC формата : Без точки перехода
Параметр матрицы формата : Default (MPEG)
Режим смешивания : Сжатый битовый поток
Идентификатор кодека : XVID
Идентификатор кодека/Подсказка : XviD
Продолжительность : 1 ч. 0 м.
Битрейт : 1465 Кбит/сек
Ширина : 688 пикселей
Высота : 512 пикселей
Соотношение сторон : 4:3
Частота кадров : 25,000 кадров/сек
Цветовое пространство : YUV
Субдискретизация насыщенности : 4:2:0
Битовая глубина : 8 бит
Тип развёртки : Прогрессивная
Метод сжатия : С потерями
Бит/(Пиксели*Кадры) : 0.166
Размер потока : 637 Мбайт (91%)
Библиотека кодирования : XviD 1.2.1 (UTC 2008-12-04)
Аудио
Идентификатор : 1
Формат : MPEG Audio
Версия формата : Version 1
Профиль формата : Layer 3
Идентификатор кодека : 55
Идентификатор кодека/Подсказка : MP3
Продолжительность : 1 ч. 0 м.
Вид битрейта : Постоянный
Битрейт : 128 Кбит/сек
Каналы : 2 канала
Частота : 44,1 КГц
Метод сжатия : С потерями
Размер потока : 55,7 Мбайт (8%)
Выравнивание : Разделение по промежуткам
Продолжительность промежутка : 40 мс. (1,00 видеокадр)
Время предзагрузки промежутка : 500 мс.

Скриншоты

Альтернативный хост

[teatrix.ru].t15197.torrent 
Торрент: Зарегистрирован [ 2016-03-14 00:53 ] · 3130F87EEFD5126CF7DFADDFFB09FF53F6D545F2

Скачать .torrent

Скачать

14 KB

Статус: проверено
Скачан: 0 раз
Размер: 697 MB
terms.php



Быстрый ответ

Имя:

      
Для отправки сообщений необходимо включить JavaScript
Показать сообщения:    

Текущее время: 04-Дек 02:50

Часовой пояс: UTC + 3


Вы можете начинать темы
Вы можете отвечать на сообщения
Вы не можете редактировать свои сообщения
Вы не можете удалять свои сообщения
Вы не можете голосовать в опросах
Вы не можете прикреплять файлы к сообщениям
Вы можете скачивать файлы