Клоун / Убей таракана / Kill the Roach, l’art du geste (Дов Эллиа / Dov Ellia, Поль Белетр / Paul Beletre) [2012, Франция, ироническая музыкальная комедия, короткий метр, DVB] Original (Fre) + Sub (rus)


Статистика раздачи [Обновить пиров]
Размер:  220 MB   |    Зарегистрирован:  8 месяцев 23 дня   |    Скачан:  0 раз

Полного источника не было: Никогда

Личеров:  25  [  0 KB/s  ]   Подробная статистика пиров
 
   
 
 
 

[Цитировать]

Клоун / Убей таракана
Kill the Roach, l’art du geste- Страна: Франция
Жанр: ироническая музыкальная комедия, короткий метр
Год выпуска: 2012
Продолжительность: 00:10:52
Перевод: Субтитры (перевод И. Безлюдной, Éclair Group)
Cубтитры: русские
Оригинальная аудиодорожка: французский
Режиссер: Дов Эллиа / Dov Ellia, Поль Белетр / Paul BelêtreВ ролях: Юде Туссен / Eudes Toussaint (L'Enfant), Лейла Шато / Leïla Chateau (La Chanteuse), Одри Кутюри / Audrey Quoturi (Badaude), Режи Трюши / Regis Truchy (Le mime)
Описание: Начинающаяся как стилизация под немое кино эта забавная короткометражка внезапно обретает голос вместе со звучащей в финале песней. Это добрая ирония на современное многонациональное французское общество и интеграцию культур.
Используя язык повседневных жестов, сын исполняет импровизированный танец "Убей таракана" в стиле, близком к брейк-дансу, в то время, как отец тщетно пытается завлечь публику классической пантомимой. Но настоящая популярность приходит к обоим, когда они объединяются с чернокожей певицей, читающей рэп…
По словам авторов фильма, они хотели сделать современную версию пантомимы в честь Жана-Луи Барро и его знаменитой роли мима в фильме Марселя Карне "Дети райка".
Доп. информация: Запись со спутника (канал TV5MONDE).
Награды: приз детского жюри Paris Courts Devant 2012 за лучшую короткометражку; приз "От всего сердца" - Urban Films Festival 2012.
Информация: http://www.imdb.com/title/tt2665624/
Сэмпл: http://multi-up.com/891263
Качество видео: DVB
Формат видео: MPEG-PS
Видео: MPEG Video 2, 720x576@1024x576 (16:9), 25 fps, ~2573 kbps avg, 0.248 bit/pixel
Аудио: Французский (48 kHz, MPEG Audio 2, 2 ch, ~192.00 kbps avg)
Формат субтитров: hardsub (неотключаемые)

MediaInfo

Полное имя                               : H:\My Torrents\[apreder]MINI_MOVIE_008\[apreder]MM_Kill_the_Roach(2012)DVB.mpg
Формат : MPEG-PS
Размер файла : 220 Мбайт
Продолжительность : 10 м.
Режим общего битрейта : Переменный
Общий поток : 2821 Кбит/сек
Видео
Идентификатор : 224 (0xE0)
Формат : MPEG Video
Версия формата : Version 2
Профиль формата : Main@Main
Параметр BVOP формата : Да
Параметр матрицы формата : Выборочная
Параметр GOP формата : M=3, N=24
Продолжительность : 10 м.
Вид битрейта : Переменный
Битрейт : 2573 Кбит/сек
Ширина : 720 пикселей
Высота : 576 пикселей
Соотношение сторон : 16:9
Частота кадров : 25,000 кадров/сек
Стандарт вещания : PAL
Цветовое пространство : YUV
Субдискретизация насыщенности : 4:2:0
Битовая глубина : 8 бит
Метод сжатия : С потерями
Бит/(Пиксели*Кадры) : 0.248
TimeCode_FirstFrame : 00:00:00:00
TimeCode_Source : Group of pictures header
Размер потока : 201 Мбайт (91%)
Аудио
Идентификатор : 192 (0xC0)
Формат : MPEG Audio
Версия формата : Version 1
Профиль формата : Layer 2
Продолжительность : 10 м.
Вид битрейта : Постоянный
Битрейт : 192 Кбит/сек
Каналы : 2 канала
Частота : 48,0 КГц
Метод сжатия : С потерями
Размер потока : 15,0 Мбайт (7%)

Скриншот c названием фильма

Скриншоты

Резервные скриншоты

-898/880√
[teatrix.ru].t15198.torrent 
Торрент: Зарегистрирован [ 2016-03-14 00:53 ] · 2FDD966767E730248CCA41AB5BE8427F73291E6F

Скачать .torrent

Скачать

18 KB

Статус: проверено
Скачан: 0 раз
Размер: 220 MB
terms.php



Быстрый ответ

Имя:

      
Для отправки сообщений необходимо включить JavaScript
Показать сообщения:    

Текущее время: 06-Дек 20:58

Часовой пояс: UTC + 3


Вы можете начинать темы
Вы можете отвечать на сообщения
Вы не можете редактировать свои сообщения
Вы не можете удалять свои сообщения
Вы не можете голосовать в опросах
Вы не можете прикреплять файлы к сообщениям
Вы можете скачивать файлы