Лео Делиб - Коппелия (Патрис Барт) / Leo Delibes - Coppеlia (Patrice Bart, Koen Kessels, Dorothеe Gilbert, Mathias Heymann) [2011, Ballet, BDRip]


 

[Цитировать]

Коппелия / Coppеlia
Год выпуска: 2011
Лейбл: Opus Arte
Страна-производитель: Франция
Жанр: Ballet
Продолжительность: 1:34:56
Музыка: Лео Делиб / Leo Delibes
Дирижер: Koen Kessels
Исполнители музыки: Orchestre Colonne
Режиссер/Хореограф: Патрис Барт / Patrice Bart
Исполнители:
Swanilda – Dorothée Gilbert
Frantz – Mathias Heymann
Coppélius – José Martinez
Spalanzani – Fabrice Bourgeois
Paris National Opera Ballet
Описание: Комический балет в двух частях по новелле Э. Гофмана «Песочный человек».
Семпл: http://multi-up.com/897209
Качество видео: BDRip
Формат/Контейнер: MKV
Видео кодек: H.264
Аудио кодек: AC3
Видео поток: MPEG4 Video (H264) 1920x1080 29.97fps
Аудио поток: Dolby AC3 48000Hz 6ch 448 Kbps

Mediainfo

Format : Matroska
File size : 7.60 GiB
Duration : 1h 34mn
Overall bit rate : 11.5 Mbps
Encoded date : UTC 2013-05-17 15:46:46
Writing application : mkvmerge v2.4.2 ('Oh My God') built on Jan 18 2009 17:30:28
Writing library : libebml v0.7.7 + libmatroska v0.8.1
Video
ID : 1
Format : AVC
Format/Info : Advanced Video Codec
Format profile : High@L4.1
Format settings, CABAC : Yes
Format settings, ReFrames : 3 frames
Muxing mode : Container profile=Unknown@4.1
Codec ID : V_MPEG4/ISO/AVC
Duration : 1h 34mn
Bit rate : 11.0 Mbps
Width : 1 920 pixels
Height : 1 080 pixels
Display aspect ratio : 16:9
Frame rate mode : Variable
Frame rate : 29.970 fps
Color space : YUV
Chroma subsampling : 4:2:0
Bit depth : 8 bits
Scan type : Progressive
Bits/(Pixel*Frame) : 0.177
Stream size : 7.15 GiB (94%)
Writing library : x264 core 116 r2019M 9cc407d
Encoding settings : cabac=1 / ref=3 / deblock=1:-1:-1 / analyse=0x3:0x133 / me=umh / subme=10 / psy=1 / psy_rd=1.00:0.15 / mixed_ref=1 / me_range=16 / chroma_me=1 / trellis=2 / 8x8dct=1 / cqm=0 / deadzone=21,11 / fast_pskip=1 / chroma_qp_offset=-3 / threads=8 / sliced_threads=0 / nr=0 / decimate=1 / interlaced=0 / bluray_compat=0 / constrained_intra=0 / bframes=3 / b_pyramid=1 / b_adapt=2 / b_bias=0 / direct=3 / weightb=1 / open_gop=0 / weightp=2 / keyint=290 / keyint_min=29 / scenecut=40 / intra_refresh=0 / rc_lookahead=40 / rc=2pass / mbtree=1 / bitrate=11000 / ratetol=1.0 / qcomp=0.60 / qpmin=10 / qpmax=51 / qpstep=4 / cplxblur=20.0 / qblur=0.5 / ip_ratio=1.40 / aq=1:1.00
Audio
ID : 2
Format : AC-3
Format/Info : Audio Coding 3
Mode extension : CM (complete main)
Codec ID : A_AC3
Duration : 1h 34mn
Bit rate mode : Constant
Bit rate : 448 Kbps
Channel(s) : 6 channels
Channel positions : Front: L C R, Side: L R, LFE
Sampling rate : 48.0 KHz
Bit depth : 16 bits
Stream size : 304 MiB (4%)

Скриншоты




Показать сообщения:    

Текущее время: 04-Дек 23:18

Часовой пояс: UTC + 3


Вы не можете начинать темы
Вы не можете отвечать на сообщения
Вы не можете редактировать свои сообщения
Вы не можете удалять свои сообщения
Вы не можете голосовать в опросах
Вы не можете прикреплять файлы к сообщениям
Вы не можете скачивать файлы