Лео Делиб - Коппелия (Эдуардо Лао) / Lеo Delibes - Coppelia (Eduardo Lao, Ballet Victor Ullate Comunidad de Madrid) [2013, Modern ballet, HDTVRip]


 

[Цитировать]

Коппелия / Coppelia
Год выпуска: 2013
Лейбл: TLT, Mezzo
Страна-производитель: Испания, Франция
Жанр: Modern ballet
Продолжительность: 01:27:39
Язык: Лео Делиб / Lеo Delibes
Режиссер-постановщик: Виктор Уллате / Victor Ullate
Режиссер фильма: Sonia Paramo
Режиссер/Хореограф: Эдуардо Лао / Eduardo Lao
Исполнители:
Natalia Arregui, Zara Calero, Sophie Cassegrain, Leyre Castresana, Renata Commisso, Eline Malegue, Diana Miqueo, María José Redelico, Olga Volovueba, Dorian Acosta, Alejandro Amores, Gianluca Battaglia, Jonathan Díaz, Mathew Edwardson, Oliver Edwardson, Jacob Hernández, Masayoshi Onuki, Laurence Rigg
Описание: Запись трансляции с канала Mezzo
Доп. информация: Рип alex7, за что ему огромное спасибо
Семпл http://multi-up.com/897246
Качество видео: HDTVRip
Формат/Контейнер: MKV
Видео кодек: H.264
Аудио кодек: MP3
Видео поток: MPEG4 Video (H264) 1280x720 25.00fps
Аудио поток: MPEG Audio Layer 3 48000Hz stereo 256kbps

Mediainfo

Format : Matroska
File size : 2.32 GiB
Duration : 1h 27mn
Overall bit rate : 3 793 Kbps
Writing application : Lavf51.12.1
Writing library : Lavf51.12.1
Video
ID : 1
Format : AVC
Format/Info : Advanced Video Codec
Format profile : Baseline@L3.1
Format settings, CABAC : No
Format settings, ReFrames : 2 frames
Format settings, GOP : M=1, N=32
Muxing mode : Container profile=Unknown@3.1
Codec ID : V_MPEG4/ISO/AVC
Duration : 1h 27mn
Bit rate : 3 462 Kbps
Width : 1 280 pixels
Height : 720 pixels
Display aspect ratio : 16:9
Frame rate : 25.000 fps
Standard : PAL
Color space : YUV
Chroma subsampling : 4:2:0
Bit depth : 8 bits
Scan type : Progressive
Bits/(Pixel*Frame) : 0.150
Stream size : 2.12 GiB (91%)
Color primaries : BT.470-6 System B, BT.470-6 System G, BT.601-6 625, BT.1358 625, BT.1700 625 PAL, BT.1700 625 SECAM
Transfer characteristics : BT.470-6 System B, BT.470-6 System G
Matrix coefficients : BT.470-6 System B, BT.470-6 System G, BT.601-6 625, BT.1358 625, BT.1700 625 PAL, BT.1700 625 SECAM, IEC 61966-2-4 601
Audio
ID : 2
Format : MPEG Audio
Format version : Version 1
Format profile : Layer 3
Mode : Joint stereo
Codec ID : A_MPEG/L3
Codec ID/Hint : MP3
Duration : 1h 27mn
Bit rate mode : Constant
Bit rate : 256 Kbps
Channel(s) : 2 channels
Sampling rate : 48.0 KHz
Bit depth : 16 bits
Stream size : 161 MiB (7%)

Скриншоты




Показать сообщения:    

Текущее время: 02-Дек 23:10

Часовой пояс: UTC + 3


Вы не можете начинать темы
Вы не можете отвечать на сообщения
Вы не можете редактировать свои сообщения
Вы не можете удалять свои сообщения
Вы не можете голосовать в опросах
Вы не можете прикреплять файлы к сообщениям
Вы не можете скачивать файлы