Марина Абрамович: в присутствии художника / Marina Abramovic: The Artist Is Present (Мэттью Эйкерс / Matthew Akers, Джефф Дюпре / Jeff Dupre) [2012, США, документальный, фильм-портрет, перформанс, DVB] DVO (24ДОК)


Статистика раздачи [Обновить пиров]
Размер:  1.38 GB   |    Зарегистрирован:  8 месяцев 27 дней   |    Скачан:  0 раз

Полного источника не было: Никогда

 
   
 
 
 

[Цитировать]

Марина Абрамович: в присутствии художника
Marina Abramović: The Artist Is Present- Страна: США
Жанр: документальный, фильм-портрет, перформанс
Год выпуска: 2012
Продолжительность: 01:39:34
Перевод: Профессиональный (двухголосый закадровый) 24ДОК
Cубтитры: нет
Оригинальная аудиодорожка: нетРежиссер: Мэттью Эйкерс / Matthew Akers, Джефф Дюпре / Jeff Dupre
В ролях: Марина Абрамович / Marina Abramovic, Улай / Ulay, Джеймс Франко / James Franco, Клаус Бизенбах / Klaus Biesenbach, Дэвид Блейн / David Blaine, Эштон Суинфорд / Ashton Swinford
Описание: Сербская художница Марина Абрамович называет себя "бабушкой перформанса". И у нее есть на то все основания. Сегодня в этом виде актуального искусства ей, пожалуй, нет равных, а впервые она обратила на себя внимание арт-сообщества еще в 1974 году.
Документальный фильм рассказывает о подготовке Марины к своей ретроспективной выставке в Музее современного искусства в Нью-Йорке (ставшей крупнейшим перформансом в истории MoMA). Ее посетители смогли не только увидеть, но и лично поучаствовать в реконструкциях самых знаковых и провокативных перформансов художницы, один из которых длился 736,5 часов: каждый желающий мог смотреть прямо в глаза Абрамович 30 минут, что приводило к самым непредсказуемым последствиям. (анонс канала "24ДОК")
Доп. информация: Запись со спутника (телеканал "24ДОК").
Награды: приз Зрительских симпатий Berlin International Film Festival 2012 в секции "Панорама" за лучший документальный фильм; номинация на Гран-при жюри Sundance Film Festival 2012; номинация Independent Spirit Awards 2013 на лучший документальный фильм.
Информация: http://www.imdb.com/title/tt2073029/
Сэмпл: http://multi-up.com/898639
Качество видео: DVB
Формат видео: MPEG-PS
Видео: MPEG Video 2, 720x576@768x576 (4:3), 25 fps, ~1756 kbps avg, 0.169 bit/pixel
Аудио: 48 kHz, MPEG Audio 2, 2 ch, ~192.00 kbps avg

MediaInfo

Полное имя                               : H:\My Torrents\[apreder]Marina_Abramovic_The_Artist_Is_Present(2012)DVB.mpg
Формат : MPEG-PS
Размер файла : 1,38 Гбайт
Продолжительность : 1 ч. 39 м.
Режим общего битрейта : Переменный
Общий поток : 1988 Кбит/сек
Видео
Идентификатор : 224 (0xE0)
Формат : MPEG Video
Версия формата : Version 2
Профиль формата : Main@Main
Параметр BVOP формата : Да
Параметр матрицы формата : Выборочная
Параметр GOP формата : Variable
Продолжительность : 1 ч. 39 м.
Вид битрейта : Переменный
Битрейт : 1756 Кбит/сек
Ширина : 720 пикселей
Высота : 576 пикселей
Соотношение сторон : 4:3
Частота кадров : 25,000 кадров/сек
Стандарт вещания : PAL
Цветовое пространство : YUV
Субдискретизация насыщенности : 4:2:0
Битовая глубина : 8 бит
Тип развёртки : Чересстрочная
Порядок развёртки : Верхнее поле первое
Метод сжатия : С потерями
Бит/(Пиксели*Кадры) : 0.169
TimeCode_FirstFrame : 00:00:00:00
TimeCode_Source : Group of pictures header
Размер потока : 1,22 Гбайт (88%)
Аудио
Идентификатор : 192 (0xC0)
Формат : MPEG Audio
Версия формата : Version 1
Профиль формата : Layer 2
Продолжительность : 1 ч. 39 м.
Вид битрейта : Постоянный
Битрейт : 192 Кбит/сек
Каналы : 2 канала
Частота : 48,0 КГц
Метод сжатия : С потерями
Размер потока : 137 Мбайт (10%)

Скриншот c названием фильма

Скриншоты


Резервные скриншоты


-
[teatrix.ru].t15206.torrent 
Торрент: Зарегистрирован [ 2016-03-14 00:52 ] · B1303D83FAEABA5FFB4BA2CDC5EDBEDA4C83B66C

Скачать .torrent

Скачать

14 KB

Статус: проверено
Скачан: 0 раз
Размер: 1.38 GB
terms.php



Быстрый ответ

Имя:

      
Для отправки сообщений необходимо включить JavaScript
Показать сообщения:    

Текущее время: 10-Дек 13:52

Часовой пояс: UTC + 3


Вы можете начинать темы
Вы можете отвечать на сообщения
Вы не можете редактировать свои сообщения
Вы не можете удалять свои сообщения
Вы не можете голосовать в опросах
Вы не можете прикреплять файлы к сообщениям
Вы можете скачивать файлы