Нина Ургант. Фильм-портрет (Е. Струкова) [1974, концертная программа, документальный, DVB]


Статистика раздачи [Обновить пиров]
Размер:  1.04 GB   |    Зарегистрирован:  8 месяцев 26 дней   |    Скачан:  0 раз

Полного источника не было: Никогда

 
   
 
 
 

[Цитировать]

Нина Ургант. Фильм-портрет- Страна: СССР (Ленинградское ТВ)
Жанр: концертная программа, документальный
Год выпуска: 1974
Продолжительность: 00:43:37-Режиссёр: Е. Струкова-Описание: Программа посвящена творчеству всенародно любимой актрисы Нины Ургант.
В 1941-м Нине Ургант было всего 11 лет, но, тем не менее, после медсестры Раечки в фильме «Белорусский вокзал», где она очень сердечно исполнила песню «Мы за ценой не постоим» — ее стали воспринимать как настоящего фронтовика. Раечка стала особой ролью в жизни Нины Ургант, но не единственной. Актриса снялась в фильмах: «Укротительница тигров», «Я родом из детства», «Премия» и других. Больше сорока лет Нина Ургант работает в Российском (в прошлом Ленинградском) государственном академическом театре драмы имени А.С. Пушкина, где ее партнерами по сцене были такие великие мастера, как Николай Симонов, Николай Черкасов, Юрий Толубеев и многие другие.-Доп. информация:
В программе принимают участие артисты Ленинградского академического театра драмы им. А.С.Пушкина М.Екатерининский, А.Соколов, В.Баринов, А.Волгин, Р.Кульд, Л.Любимова, Н.Мартон, Э.Романов, Е.Черная. Использованы редчайшие фрагменты спектаклей 1970-х годов по пьесам: Ю.Германа “Дело, которому ты служишь”, Л.Жуховицкого “Одни, без ангелов”, В.Шекспира “Много шума из ничего”, А.Гребнева “Из жизни деловой женщины”, А.Чехова “Вишневый сад”; песня из к/ф “Белорусский вокзал” и стихотворения О.Берггольц.-Качество: DVB
Формат: MPEG-PS
Видео: MPEG-2, 720x576@768x576 (4/3), 25 fps, ~3138 Kbps (0.303bit/pixel)
Аудио: MP2, 48 KHz, 2 ch, 192 Kbps-

MediaInfo

General
Complete name : ...\Нина Ургант. Фильм-портрет (1974) [DVB].mpg
Format : MPEG-PS
File size : 1.04 GiB
Duration : 43mn 36s
Overall bit rate mode : Variable
Overall bit rate : 3 398 Kbps
Video
ID : 224 (0xE0)
Format : MPEG Video
Format version : Version 2
Format profile : Main@Main
Format settings, BVOP : Yes
Format settings, Matrix : Custom
Format settings, GOP : M=3, N=12
Duration : 43mn 36s
Bit rate mode : Variable
Bit rate : 3 138 Kbps
Maximum bit rate : 5 000 Kbps
Width : 720 pixels
Height : 576 pixels
Display aspect ratio : 4:3
Frame rate : 25.000 fps
Standard : PAL
Color space : YUV
Chroma subsampling : 4:2:0
Bit depth : 8 bits
Scan type : Interlaced
Scan order : Top Field First
Compression mode : Lossy
Bits/(Pixel*Frame) : 0.303
Time code of first frame : 00:00:00:00
Time code source : Group of pictures header
Stream size : 979 MiB (92%)
Audio
ID : 192 (0xC0)
Format : MPEG Audio
Format version : Version 1
Format profile : Layer 2
Duration : 43mn 36s
Bit rate mode : Constant
Bit rate : 192 Kbps
Channel(s) : 2 channels
Sampling rate : 48.0 KHz
Compression mode : Lossy
Delay relative to video : -40ms
Stream size : 59.9 MiB (6%)

Скриншоты

[teatrix.ru].t15208.torrent 
Торрент: Зарегистрирован [ 2016-03-14 00:52 ] · 757EE26EFA57266BF2A3E01862A5FDAA09BA9C79

Скачать .torrent

Скачать

11 KB

Статус: проверено
Скачан: 0 раз
Размер: 1.04 GB
terms.php



Быстрый ответ

Имя:

      
Для отправки сообщений необходимо включить JavaScript
Показать сообщения:    

Текущее время: 10-Дек 00:22

Часовой пояс: UTC + 3


Вы можете начинать темы
Вы можете отвечать на сообщения
Вы не можете редактировать свои сообщения
Вы не можете удалять свои сообщения
Вы не можете голосовать в опросах
Вы не можете прикреплять файлы к сообщениям
Вы можете скачивать файлы