Приют комедиантов. Счастливый случай (Сергей Варновский) [2013, ТВ-передача, театр, искусство, SATRip]


Статистика раздачи [Обновить пиров]
Размер:  1.03 GB   |    Зарегистрирован:  8 месяцев 24 дня   |    Скачан:  0 раз

Полного источника не было: Никогда

 
   
 
 
 

[Цитировать]

Приют комедиантов. Счастливый случай
Год выпуска: 2013
Страна: Россия , ООО "Эксклюзив ТВ"
Жанр: ТВ-передача, театр, искусство
Продолжительность: 01:29:00
Перевод: Не требуется
Русские субтитры: нет
Режиссер: Сергей Варновский
Описание: "Счастливый случай". Какую роль случай играет в жизни людей творческих профессий? Существует мнение, что, например, актёрская профессия - это талант, труд и цепь счастливых случайностей. Так ли это на самом деле? Много интересных историй о, казалось бы, совершенно случайных событиях, подарках судьбы и даже о том, как не заразиться "звёздной болезнью", расскажут Михаил Задорнов, Лариса Рубальская, Николай Чиндяйкин, Людмила Нильская, Владимир Качан, Алика Смехова, Лора Квинт, Дмитрий Певцов, Елена Захарова, Дмитрий Бертман, Дарья Юрская, Анна Якунина, Александра Урсуляк.
качество: SATRip
формат: AVI
Видео: 640х480 (1.33:1), 25 fps, XviD, ~1500 kbps avg, 0.19 bit/pixel
Аудио: 48 kHz, MPEG Layer 3, 2 ch, ~128 kbps avg

MediaInfo

Complete name : D:\Для раздачи\prijut_komediantov_schastlivyj_sluchaj.avi
Format : AVI
Format/Info : Audio Video Interleave
File size : 1.03 GiB
Duration : 1h 29mn
Overall bit rate : 1 638 Kbps
Writing application : VirtualDubMod 1.5.10.2 (build 2540/release)
Writing library : VirtualDubMod build 2540/release
Video
ID : 0
Format : MPEG-4 Visual
Format profile : Advanced Simple@L5
Format settings, BVOP : Yes
Format settings, QPel : No
Format settings, GMC : No warppoints
Format settings, Matrix : Default (MPEG)
Codec ID : XVID
Codec ID/Hint : XviD
Duration : 1h 29mn
Bit rate : 1 500 Kbps
Width : 640 pixels
Height : 480 pixels
Display aspect ratio : 4:3
Frame rate : 25.000 fps
Color space : YUV
Chroma subsampling : 4:2:0
Bit depth : 8 bits
Scan type : Progressive
Bits/(Pixel*Frame) : 0.195
Stream size : 964 MiB (92%)
Writing library : XviD 1.2.1 (UTC 2008-12-04)
Audio
ID : 1
Format : MPEG Audio
Format version : Version 1
Format profile : Layer 3
Codec ID : 55
Codec ID/Hint : MP3
Duration : 1h 29mn
Bit rate mode : Constant
Bit rate : 128 Kbps
Channel(s) : 2 channels
Sampling rate : 48.0 KHz
Stream size : 82.2 MiB (8%)
Alignment : Aligned on interleaves
Interleave, duration : 40 ms (1.00 video frame)
Interleave, preload duration : 504 ms
Writing library : LAME3.99r
Encoding settings : -m s -V 4 -q 2 -lowpass 17 -b 128

Скриншоты



[teatrix.ru].t15210.torrent 
Торрент: Зарегистрирован [ 2016-03-14 00:52 ] · F35B97A53A282A684BC80DDA66996F3AD4C78825

Скачать .torrent

Скачать

21 KB

Статус: проверено
Скачан: 0 раз
Размер: 1.03 GB
terms.php



Быстрый ответ

Имя:

      
Для отправки сообщений необходимо включить JavaScript
Показать сообщения:    

Текущее время: 07-Дек 15:33

Часовой пояс: UTC + 3


Вы можете начинать темы
Вы можете отвечать на сообщения
Вы не можете редактировать свои сообщения
Вы не можете удалять свои сообщения
Вы не можете голосовать в опросах
Вы не можете прикреплять файлы к сообщениям
Вы можете скачивать файлы