Vincent Dumestre - Une derniere chanson (Thierry Malandain, Ballet de Biarritz) / Венсан Дюместр - Последняя песня (Тьерри Маланден) [2013, Modern ballet, HDTVRip]


 

[Цитировать]

Une derniere chanson / Последняя песня
Год выпуска: 2013
Лейбл: MEZZO
Страна-производитель: Франция, Испания
Жанр: Modern ballet
Продолжительность: 00:34:25
Режиссер ТВ: Sonia Paramo
Композитор: Венсан Дюместр / Vincent Dumestre
Musique Romances & Complaintes de la France d'autrefois, Le Poème Harmonique - Vincent Dumestre
Режиссер/Хореограф: Тьерри Маланден / Thierry Malandain
Исполнители: Ballet de Biarritz
Ione Miren Aguirre,
Giuseppe Chiavaro,
Mickaël Conte,
Ellyce Daniele,
Frederik Deberdt,
Miyuki Kanei,
Jacob Hernandez Martin,
Claire Lonchampt,
Silvia Magalhaes,
Arnaud Mahouy
Описание:
Балет Тьерри Маландена «Последняя песня» записан на Музыкальном фестивале «Куинсэна» в Сан-Себастьяне (Испания) на сцене театра «Виктории-Евгении» (Teatro Victoria Eugenia).
Доп. информация: Рип alex7, за что ему огромное спасибо.
Качество видео: HDTVRip
Формат/Контейнер: MKV
Видео кодек: H.264
Аудио кодек: MP3
Видео поток: MPEG4 Video (H264) 1920x1080 25.00fps
Аудио поток: MPEG Audio Layer 3 48000Hz stereo 256kbps
Семпл http://multi-up.com/903455

Mediainfo

Format : Matroska
File size : 992 MiB
Duration : 34mn 25s
Overall bit rate : 4 031 Kbps
Writing application : Lavf51.12.1
Writing library : Lavf51.12.1
Video
ID : 1
Format : AVC
Format/Info : Advanced Video Codec
Format profile : Baseline@L4.0
Format settings, CABAC : No
Format settings, ReFrames : 2 frames
Format settings, GOP : M=1, N=32
Muxing mode : Container profile=Unknown@4.0
Codec ID : V_MPEG4/ISO/AVC
Duration : 34mn 25s
Bit rate : 3 694 Kbps
Width : 1 920 pixels
Height : 1 080 pixels
Display aspect ratio : 16:9
Frame rate : 25.000 fps
Standard : PAL
Color space : YUV
Chroma subsampling : 4:2:0
Bit depth : 8 bits
Scan type : Progressive
Bits/(Pixel*Frame) : 0.071
Stream size : 910 MiB (92%)
Color primaries : BT.470-6 System B, BT.470-6 System G, BT.601-6 625, BT.1358 625, BT.1700 625 PAL, BT.1700 625 SECAM
Transfer characteristics : BT.470-6 System B, BT.470-6 System G
Matrix coefficients : BT.470-6 System B, BT.470-6 System G, BT.601-6 625, BT.1358 625, BT.1700 625 PAL, BT.1700 625 SECAM, IEC 61966-2-4 601
Audio
ID : 2
Format : MPEG Audio
Format version : Version 1
Format profile : Layer 3
Mode : Joint stereo
Codec ID : A_MPEG/L3
Codec ID/Hint : MP3
Duration : 34mn 25s
Bit rate mode : Constant
Bit rate : 256 Kbps
Channel(s) : 2 channels
Sampling rate : 48.0 KHz
Bit depth : 16 bits
Stream size : 63.0 MiB (6%)

Скриншоты




Показать сообщения:    

Текущее время: 04-Дек 15:17

Часовой пояс: UTC + 3


Вы не можете начинать темы
Вы не можете отвечать на сообщения
Вы не можете редактировать свои сообщения
Вы не можете удалять свои сообщения
Вы не можете голосовать в опросах
Вы не можете прикреплять файлы к сообщениям
Вы не можете скачивать файлы