Брачная ночь / Svatební noc (Ян Рогач / Ján Roháč) [1970, Чехословакия, Комедия / короткий метр, TVRip] (Leierkastenmann) + Sub Rus + Original Cze


Статистика раздачи [Обновить пиров]
Размер:  597 MB   |    Зарегистрирован:  8 месяцев 28 дней   |    Скачан:  0 раз

Полного источника не было: Никогда

 
   
 
 
 

[Цитировать]

Брачная ночь / Svatební noc
Страна: Чехословакия
Жанр: Комедия / короткий метр
Год выпуска: 1970
Продолжительность: 00:42:03
Перевод: Субтитры Leierkastenmann
Cубтитры: русские
Оригинальная аудиодорожка: чешский
Режиссер: Ян Рогач / Ján Roháč
В ролях: Рудольф Грушинский, Йозеф Сомр, Ива Янжурова
Описание: История о двух приятелях музыкантах, которые по случаю первого совместного концерта решили устроить себе вечер в приятной компании девушки легкого поведения.
Качество видео: TVRip
Формат видео: AVI
Видео: 720x544 (1.32:1), 25 fps, XviD MPEG-4 ~1716 kbps avg, 0.18 bit/pixel
Аудио: 48 kHz, AC3 Dolby Digital, 2/0 (L,R) ch, ~256.00 kbps avg
Формат субтитров: softsub (SRT)

Субтитры

1
00:00:08,789 --> 00:00:11,039
Наконец-то! Где тебя носит?
2
00:00:11,281 --> 00:00:13,391
- Привет!
- Привет!
3
00:00:13,508 --> 00:00:16,375
- Я уж думал, ты не придешь.
- Ну я же тебе обещал.
4
00:00:17,429 --> 00:00:19,875
Что значит мне обещал?
Мы оба с тобой обещали.
5
00:00:20,499 --> 00:00:22,538
- Уже пришла?
- Еще нет.
6
00:00:22,655 --> 00:00:24,444
Но скоро должна быть.
Проходи, проходи.
7
00:00:32,966 --> 00:00:37,075
Рудольф Грушинский
8
00:00:37,365 --> 00:00:40,888
Йозеф Сомр
9
00:00:41,169 --> 00:00:44,645
Ива Янжурова
10
00:00:45,004 --> 00:00:48,448
По рассказу Мирко Стибера
11
00:00:49,199 --> 00:00:53,207
БРАЧНАЯ НОЧЬ
12
00:00:53,410 --> 00:00:57,069
Музыка И.-С. Бах, А.Дворжак
13
00:01:19,216 --> 00:01:23,209
Оператор Мирослав Ондржичек
14
00:01:23,537 --> 00:01:27,404
Режиссер Ян Рогач
15
00:01:49,578 --> 00:01:51,086
Подвинем диван...
16
00:01:51,569 --> 00:01:53,428
Подержи это, я принесу покрывало.
17
00:02:40,534 --> 00:02:42,300
Ты зачем скрипку притащил?
18
00:02:43,268 --> 00:02:45,307
- А?
- Я думал...
19
00:02:46,041 --> 00:02:49,612
Может, мы могли бы...
что-нибудь сыграть.
20
00:02:49,838 --> 00:02:53,143
Сыграть? Сыграть! Да ты
с ума сошел, старик!

MediaInfo

E:\Video\Фильмы\Svatebni noc\Svatebni noc.avi
General
Complete name : E:\Video\Фильмы\Svatebni noc\Svatebni noc.avi
Format : AVI
Format/Info : Audio Video Interleave
File size : 597 MiB
Duration : 42mn 3s
Overall bit rate : 1 983 Kbps
Writing application : VirtualDubMod 1.5.4.1 (build 2178/release)
Writing library : VirtualDub build 32842/release
Video
Format : MPEG-4 Visual
Format profile : Streaming Video@L1
Format settings, BVOP : Yes
Format settings, QPel : No
Format settings, GMC : No warppoints
Format settings, Matrix : Custom
Codec ID : XVID
Codec ID/Hint : XviD
Duration : 42mn 3s
Bit rate : 1 717 Kbps
Width : 720 pixels
Height : 544 pixels
Display aspect ratio : 4/3
Frame rate : 25.000 fps
Resolution : 24 bits
Colorimetry : 4:2:0
Scan type : Progressive
Bits/(Pixel*Frame) : 0.175
Stream size : 517 MiB (87%)
Writing library : XviD 50
Audio
Format : AC-3
Format/Info : Audio Coding 3
Codec ID : 2000
Duration : 42mn 3s
Bit rate mode : Constant
Bit rate : 256 Kbps
Channel(s) : 2 channels
Channel positions : L R
Sampling rate : 48.0 KHz
Stream size : 77.0 MiB (13%)
Alignment : Split accross interleaves
Interleave, duration : 40 ms (1.00 video frame)
Interleave, preload duration : 500 ms

Скриншоты

[teatrix.ru].t15212.torrent 
Торрент: Зарегистрирован [ 2016-03-14 00:52 ] · F779D16A8EA0A4180F96BC7133AB4B27B98E3CDF

Скачать .torrent

Скачать

12 KB

Статус: проверено
Скачан: 0 раз
Размер: 597 MB
terms.php



Быстрый ответ

Имя:

      
Для отправки сообщений необходимо включить JavaScript
Показать сообщения:    

Текущее время: 11-Дек 07:10

Часовой пояс: UTC + 3


Вы можете начинать темы
Вы можете отвечать на сообщения
Вы не можете редактировать свои сообщения
Вы не можете удалять свои сообщения
Вы не можете голосовать в опросах
Вы не можете прикреплять файлы к сообщениям
Вы можете скачивать файлы