Vasco Rossi - L altra meta del cielo (Martha Clarke, La Scala Ballet) / Васко Росси - Вторая половина неба (Марта Кларк) [2012, Modern ballet, Modern dance, SATRip]


 

[Цитировать]

L altra meta del cielo / Вторая половина неба
Год выпуска: 2012
Лейбл: Teatro alla Scala
Страна-производитель: Италия
Жанр: Modern ballet, Modern dance
Продолжительность: 01:17:52
Music and dramaturgy: Васко Росси / Vasco Rossi
Orchestration: Чельсо Валли / Celso Valli
Режиссер/Хореограф: Марта Кларк / Martha Clarke
Язык: песни Васко Росси на итальянском языке
Исполнители:
Albachiara – Sabrina Brozzo
Susanna – Beatrice Corbone
Silvia – Stefania Ballone
Claudio – Andrea Volpintesta
Mario - Antonino Sutera
Fabio – Matteo Cavazzi
La Scala Ballet

Balletto in 4 parti

1. L`Adolescenza
Albachiara
Susanna
Silvia
2. La Maturita
Anita Fragile
Brava
Gabri
3. La Crescita
Incredibile Romantica
Brava Giulia
Delusa
4. L`Abbandona
Jemmy e pazza
Laura
Sally
Un sensa
Описание: 3 апреля 2012 года состоялась мировая премьера спектакля-балета L’altra metà del cielo.
Марта Кларк и Васко Росси: встреча двух разных миров. В центре женщина. Кажется, что рок и балет бесконечно далеки друг от друга, но этот симбиоз получился удачным. Это спектакль о женщинах – Albachiara, Susanna и Silvia три главных героини, три типа женщин из песен Васко Росси, три символических персонажа, живут различные периоды своей жизни: подростковый, взросление, закат, и во взаимоотношениях друг с другом, с партнерами познают себя.
Доп. информация: Рип скачан из сети.
Во втором файле интервью с Мартой Кларк и Васко Росси. Интервью на итальянском языке.
Семпл http://multi-up.com/907935
Качество видео: SATRip
Формат/Контейнер: AVI
Видео кодек: DivX
Аудио кодек: AC3
Видео поток: DivX 5 704x400 25.00fps
Аудио поток: MPEG Audio 48000Hz stereo 192kbps

Mediainfo

Format : AVI
Format/Info : Audio Video Interleave
File size : 862 MiB
Duration : 1h 17mn
Overall bit rate : 1 548 Kbps
Video
ID : 0
Format : MPEG-4 Visual
Format profile : Simple@L1
Format settings, BVOP : No
Format settings, QPel : No
Format settings, GMC : No warppoints
Format settings, Matrix : Default (H.263)
Codec ID : DX50
Codec ID/Hint : DivX 5
Duration : 1h 17mn
Bit rate : 1 346 Kbps
Width : 704 pixels
Height : 400 pixels
Display aspect ratio : 16:9
Frame rate : 25.000 fps
Color space : YUV
Chroma subsampling : 4:2:0
Bit depth : 8 bits
Scan type : Progressive
Bits/(Pixel*Frame) : 0.191
Stream size : 750 MiB (87%)
Writing library : Lavc52.42.0
Audio
ID : 1
Format : MPEG Audio
Format version : Version 1
Format profile : Layer 2
Codec ID : 50
Duration : 1h 17mn
Bit rate mode : Constant
Bit rate : 192 Kbps
Channel(s) : 2 channels
Sampling rate : 48.0 KHz
Bit depth : 16 bits
Stream size : 107 MiB (12%)
Alignment : Aligned on interleaves
Interleave, duration : 40 ms (1.00 video frame)

Скриншоты




Показать сообщения:    

Текущее время: 11-Дек 03:22

Часовой пояс: UTC + 3


Вы не можете начинать темы
Вы не можете отвечать на сообщения
Вы не можете редактировать свои сообщения
Вы не можете удалять свои сообщения
Вы не можете голосовать в опросах
Вы не можете прикреплять файлы к сообщениям
Вы не можете скачивать файлы