Духовные беседы. Про любовь (Иван Охлобыстин) [2013, Разговорный жанр, HDCamRip] ДК г.Фрязино


Статистика раздачи [Обновить пиров]
Размер:  14.61 GB   |    Зарегистрирован:  8 месяцев 28 дней   |    Скачан:  0 раз

Полного источника не было: Никогда

 
   
 
 
 

[Цитировать]

Духовные беседы. Про любовь
Название театра: ДК г.Фрязино
Жанр: Разговорный жанр
Год выпуска: 2013
Продолжительность: 01:32:53
Перевод: Не требуется
Режиссёр: И.И.Охлобыстин
В ролях: И.И.Охлобыстин
Описание: Авторский вечер Ивана Ивановича Охлобыстина во Дворце культуры города Фрязино 28 сентября 2013 года. Запись на видеокамеру (без пересжатия).
Семпл: http://www.sendspace.com/file/cyj3k3
Качество видео: HDCamRip
Формат видео: M2TS
Видео: AVCHD, 1080i, 16:9, 25fps, 22Mbps
Аудио: AC-3, 48kHz, 448kBps, 5.1

MediaInfo

Общее
Идентификатор : 0 (0x0)
Формат : BDAV
Формат/Информация : Blu-ray Video
Размер файла : 14,6 Гбайт
Продолжительность : 1 ч. 32 м.
Режим общего битрейта : Переменный
Общий поток : 22,5 Мбит/сек
Максимальный общий битрейт : 24,0 Мбит/сек
Видео
Идентификатор : 4113 (0x1011)
Идентификатор меню : 1 (0x1)
Формат : AVC
Формат/Информация : Advanced Video Codec
Профиль формата : High@L4.0
Параметр CABAC формата : Да
Параметр ReFrames формата : 2 кадра
Параметр GOP формата : M=2, N=13
Идентификатор кодека : 27
Продолжительность : 1 ч. 32 м.
Вид битрейта : Переменный
Битрейт : 21,2 Мбит/сек
Максимальный битрейт : 22,0 Мбит/сек
Ширина : 1920 пикселей
Высота : 1080 пикселей
Соотношение сторон : 16:9
Частота кадров : 25,000 кадров/сек
Цветовое пространство : YUV
Субдискретизация насыщенности : 4:2:0
Битовая глубина : 8 бит
Тип развёртки : Чересстрочная
Порядок развёртки : Верхнее поле первое
Бит/(Пиксели*Кадры) : 0.408
Размер потока : 13,7 Гбайт (94%)
Аудио
Идентификатор : 4352 (0x1100)
Идентификатор меню : 1 (0x1)
Формат : AC-3
Формат/Информация : Audio Coding 3
Расширение режима : CM (complete main)
Параметр Endianness формата : Big
Идентификатор кодека : 129
Продолжительность : 1 ч. 32 м.
Вид битрейта : Постоянный
Битрейт : 448 Кбит/сек
Каналы : 6 каналов
Расположение каналов : Front: L C R, Side: L R, LFE
Частота : 48,0 КГц
Битовая глубина : 16 бит
Метод сжатия : С потерями
Задержка видео : -80 мс.
Размер потока : 298 Мбайт (2%)
Текст
Идентификатор : 4608 (0x1200)
Идентификатор меню : 1 (0x1)
Формат : PGS
Идентификатор кодека : 144
Продолжительность : 1 ч. 32 м.
Задержка видео : -80 мс.

Скриншоты

[teatrix.ru].t15217.torrent 
Торрент: Зарегистрирован [ 2016-03-14 00:51 ] · C0C17D1A879DC455A3C82C52A919B88DD1B4DE8A

Скачать .torrent

Скачать

37 KB

Статус: проверено
Скачан: 0 раз
Размер: 14.61 GB
terms.php



Быстрый ответ

Имя:

      
Для отправки сообщений необходимо включить JavaScript
Показать сообщения:    

Текущее время: 11-Дек 07:15

Часовой пояс: UTC + 3


Вы можете начинать темы
Вы можете отвечать на сообщения
Вы не можете редактировать свои сообщения
Вы не можете удалять свои сообщения
Вы не можете голосовать в опросах
Вы не можете прикреплять файлы к сообщениям
Вы можете скачивать файлы