Возвращение / Return (Никита Овсянников) [2010, Россия, экзистенциальная драма, научная фантастика, короткий метр, DVDRip]


Статистика раздачи [Обновить пиров]
Размер:  185 MB   |    Зарегистрирован:  8 месяцев 20 дней   |    Скачан:  0 раз

Полного источника не было: Никогда

Личеров:  36  [  0 KB/s  ]   Подробная статистика пиров
 
   
 
 
 

[Цитировать]

Возвращение
Return- Страна: Россия
Жанр: экзистенциальная драма, научная фантастика, короткий метр
Год выпуска: 2010
Продолжительность: 00:11:55
Перевод: Не требуется
Cубтитры: нет
Режиссер: Никита ОвсянниковВ ролях: Семен Гайворонский (Man), Валерий Крикушенко (Boy)
Описание: Короткометражный фильм "Возвращение" — это попытка провести зрителя через эмоции и чувства человека, который потерял всё, что имел, потерял само ощущение себя и мира вокруг. Его жизнь превратилась в чёрно-белое кино и всё, что у него осталось, — это воспоминания и непреодолимое желание повернуть время вспять.
Завораживающая, насыщенная атмосфера фильма пропитана любовью и уважением к таким легендарным мастерам научной фантастики, как Рэй Брэдбери и Роберт Шекли. Простой сюжет дополнен огромным количеством символов и аллюзий, детальный анализ которых даст внимательному зрителю богатую пищу для размышлений. Фильм не навязывает определённую мораль и открыт для трактовки. Каждый найдёт в нём что-то для себя.
При полном отсутствии бюджета картина снята на цифровую камеру. Поскольку свет играет ключевую роль в постановке, ему уделено особое внимание. Все сцены сняты при использовании только одного источника освещения — Солнца. Свет распределялся по площадке при помощи хитрой системы зеркал.
Саундтрек к фильму написал замечательный испанский композитор Алекс Конрадо, известный работой с самим Педро Альмодоваром ("Поговори с ней"). Конрадо очень тонко уловил настроение фильма и усилил его потрясающей музыкой. (из анонса журнала "Мир фантастики")
Доп. информация: Оригинальные титры фильма на английском языке. Фильм вышел на DVD-приложении к журналу "Мир фантастики" № 89, январь 2011 г.
Награды: приз "Platinum Remi" - WorldFest-Houston International Film Festival 2012; Почетный приз Los Angeles Movie Awards 2012; Почетный приз Boston Science Fiction Film Festival 2012; приз за лучший короткометражный фильм Staffordshire Festival of Performing Arts 2012; награда за лучший звук Sunset International Film Festival 2012.
Информация: http://www.imdb.com/title/tt2142869/
Сэмпл: http://multi-up.com/910165
Качество видео: DVDRip
Формат видео: AVI
Видео: XviD, 720x400 (1.80:1), 25 fps, ATI YVU12 4:2:0 Planar ~1970 kbps avg, 0.274 bit/pixel
Аудио: 48 kHz, MPEG Layer 3, 2 ch, ~192.00 kbps avg

MediaInfo

Полное имя                               : H:\My Torrents\[apreder]MINI_MOVIE_008\[apreder]MM_Return(2010)DVDRip.avi
Формат : AVI
Формат/Информация : Audio Video Interleave
Размер файла : 185 Мбайт
Продолжительность : 11 м.
Общий поток : 2172 Кбит/сек
Видео
Идентификатор : 0
Формат : MPEG-4 Visual
Профиль формата : Advanced Simple@L5
Параметр BVOP формата : 2
Параметр QPel формата : Нет
Параметр GMC формата : Без точки перехода
Параметр матрицы формата : Default (H.263)
Идентификатор кодека : XVID
Идентификатор кодека/Подсказка : XviD
Продолжительность : 11 м.
Битрейт : 1970 Кбит/сек
Ширина : 720 пикселей
Высота : 400 пикселей
Соотношение сторон : 16:9
Частота кадров : 25,000 кадров/сек
Цветовое пространство : YUV
Субдискретизация насыщенности : 4:2:0
Битовая глубина : 8 бит
Тип развёртки : Прогрессивная
Метод сжатия : С потерями
Бит/(Пиксели*Кадры) : 0.274
Размер потока : 168 Мбайт (91%)
Библиотека кодирования : XviD 64
Аудио
Идентификатор : 1
Формат : MPEG Audio
Версия формата : Version 1
Профиль формата : Layer 3
Режим : Joint stereo
Расширение режима : MS Stereo
Идентификатор кодека : 55
Идентификатор кодека/Подсказка : MP3
Продолжительность : 11 м.
Вид битрейта : Постоянный
Битрейт : 192 Кбит/сек
Каналы : 2 канала
Частота : 48,0 КГц
Метод сжатия : С потерями
Размер потока : 16,4 Мбайт (9%)
Выравнивание : Разделение по промежуткам
Продолжительность промежутка : 40 мс. (1,00 видеокадр)
Время предзагрузки промежутка : 500 мс.
Библиотека кодирования : LAME3.98.4

Скриншот c названием фильма

Скриншоты

Резервные скриншоты

-998/980√
[teatrix.ru].t15218.torrent 
Торрент: Зарегистрирован [ 2016-03-14 00:51 ] · D36568E2BFD83E863A69942D1F30A9F9EEC79BFF

Скачать .torrent

Скачать

15 KB

Статус: проверено
Скачан: 0 раз
Размер: 185 MB
terms.php



Быстрый ответ

Имя:

      
Для отправки сообщений необходимо включить JavaScript
Показать сообщения:    

Текущее время: 03-Дек 20:41

Часовой пояс: UTC + 3


Вы можете начинать темы
Вы можете отвечать на сообщения
Вы не можете редактировать свои сообщения
Вы не можете удалять свои сообщения
Вы не можете голосовать в опросах
Вы не можете прикреплять файлы к сообщениям
Вы можете скачивать файлы