Большое чувство / The Big Feeling (Никита Овсянников) [2012, Канада, Россия, фантасмагория, драма, короткий метр, DVDRip]


Статистика раздачи [Обновить пиров]
Размер:  161 MB   |    Зарегистрирован:  8 месяцев 26 дней   |    Скачан:  0 раз

Полного источника не было: Никогда

Личеров:  30  [  0 KB/s  ]   Подробная статистика пиров
 
   
 
 
 

[Цитировать]

Большое чувство
The Big Feeling- Страна: Канада, Россия
Жанр: фантасмагория, драма, короткий метр
Год выпуска: 2012
Продолжительность: 00:13:06
Перевод: Не требуется
Cубтитры: нет
Режиссер: Никита Овсянников
В ролях: Анастасия Герасимова, Олег Мальцев, Семён ГайворонскийОписание: Мы все что-то ищем. Этот фильм — рассказ о том, какие препятствия нужно преодолеть, чтобы найти то, ради чего стоит жить. Молодая девушка, увлечённая романтическим приключением, попадает в автомобильную аварию. Она погружается в мир своих фантазий и страхов. И там ей предстоит отыскать нечто, чего прежде она не могла ощутить. То, что невозможно понять. То, что мы называем "Большим чувством".
Работа над фильмом шла ровно один год. Сценарий предполагал сложную форму и динамичное повествование. Фильм должен был создавать эффект лавины, которая набирает скорость и массу и в конце разбивается о зрителя. Ключевым моментом для восприятия картины стала музыка. По замыслу режиссёра, музыка должна не только соответствовать визуальному ряду, но и вести за собой сюжет фильма. Испанский композитор Алекс Конрадо пошёл ещё дальше: его музыка создаёт собственную сюжетную линию, добавляя картине глубину. (анонс журнала "Мир фантастики")-Это первый фильм режиссера после отъезда на обучение в Киношколу Торонто (Toronto Film School). Никита Овсянников род. 11 июня 1989 г. в небольшом городе Черкесске на юге России. С детства был страстным поклонником мультфильмов и комиксов. Первый короткометражный фильм снял в 14 лет, используя цифровой фотоаппарат. Одновременно увлекся фотографией и сделал две персональные фотовыставки в Пятигорске. (по интервью "Filmmaking by Nikita Ovsyannikov" для сайта geometria)-Доп. информация: Оригинальные титры фильма на английском языке. Фильм вышел на DVD-приложении к журналу "Мир фантастики" № 108, август 2012 г.
Участник Второго фестиваля короткометражных фильмов "Дирижабль" (Владикавказ) 2013; Тюменского международного кинофестиваля "КультПросвет" 2013.
Информация: http://www.imdb.com/title/tt2799724/
Сэмпл: http://multi-up.com/910615
Качество видео: DVDRip
Формат видео: AVI
Видео: XviD, 720x304 (2.37:1), 25 fps, ATI YVU12 4:2:0 Planar ~1575 kbps avg, 0.288 bit/pixel
Аудио: 44.100 kHz, MPEG Layer 3, 2 ch, ~128.00 kbps avg

MediaInfo

Полное имя                               : H:\My Torrents\[apreder]MINI_MOVIE_008\[apreder]MM_The_Big_Feeling(2012)DVDRip.avi
Формат : AVI
Формат/Информация : Audio Video Interleave
Размер файла : 161 Мбайт
Продолжительность : 13 м.
Общий поток : 1712 Кбит/сек
Видео
Идентификатор : 0
Формат : MPEG-4 Visual
Профиль формата : Advanced Simple@L5
Параметр BVOP формата : 2
Параметр QPel формата : Нет
Параметр GMC формата : Без точки перехода
Параметр матрицы формата : Default (H.263)
Идентификатор кодека : XVID
Идентификатор кодека/Подсказка : XviD
Продолжительность : 13 м.
Битрейт : 1575 Кбит/сек
Ширина : 720 пикселей
Высота : 304 пикселя
Соотношение сторон : 2,35:1
Частота кадров : 25,000 кадров/сек
Цветовое пространство : YUV
Субдискретизация насыщенности : 4:2:0
Битовая глубина : 8 бит
Тип развёртки : Прогрессивная
Метод сжатия : С потерями
Бит/(Пиксели*Кадры) : 0.288
Размер потока : 148 Мбайт (92%)
Библиотека кодирования : XviD 64
Аудио
Идентификатор : 1
Формат : MPEG Audio
Версия формата : Version 1
Профиль формата : Layer 3
Режим : Joint stereo
Расширение режима : MS Stereo
Идентификатор кодека : 55
Идентификатор кодека/Подсказка : MP3
Продолжительность : 13 м.
Вид битрейта : Постоянный
Битрейт : 128 Кбит/сек
Каналы : 2 канала
Частота : 44,1 КГц
Метод сжатия : С потерями
Размер потока : 12,0 Мбайт (7%)
Выравнивание : Разделение по промежуткам
Продолжительность промежутка : 40 мс. (1,00 видеокадр)
Время предзагрузки промежутка : 500 мс.

Скриншот c названием фильма

Скриншоты

Резервные скриншоты

-1'001/983√
[teatrix.ru].t15220.torrent 
Торрент: Зарегистрирован [ 2016-03-14 00:51 ] · 6A5677774C6596ABAFDE8A2BDE54EEBA3AAD1733

Скачать .torrent

Скачать

13 KB

Статус: проверено
Скачан: 0 раз
Размер: 161 MB
terms.php



Быстрый ответ

Имя:

      
Для отправки сообщений необходимо включить JavaScript
Показать сообщения:    

Текущее время: 09-Дек 06:58

Часовой пояс: UTC + 3


Вы можете начинать темы
Вы можете отвечать на сообщения
Вы не можете редактировать свои сообщения
Вы не можете удалять свои сообщения
Вы не можете голосовать в опросах
Вы не можете прикреплять файлы к сообщениям
Вы можете скачивать файлы