Igor Strawinsky - Sacre (Sasha Waltz, Orchestre symphonique de la Monnaie) / Игорь Стравинский - Весна священная (Саша Вальц) [2013, Modern ballet, WEBRip]


 

[Цитировать]

Sacre / Весна священная
Год выпуска: 2013
Лейбл: Sasha Waltz & Guests
Страна-производитель: Бельгия
Жанр: Modern ballet
Продолжительность: 00:41:22
Композитор: Igor Strawinsky / Игорь Стравинский
Исполнители музыки: Orchestre symphonique de la Monnaie
Konzertmeister: Nana Kawamura
Режиссер/Хореограф: Sasha Waltz / Саша Вальц
Художники-постановщики: Pia Maier Schriever, Sasha Waltz
Исполнители: Sasha Waltz & Guests
Liza Alpizar Aguilar, Israel Aloni, Jiri Bartovanec, Davide Camplani, Maria Marta Colusi, Juan Kruz Diaz de Garaio Esnaola, Luc Dunberry, Edivaldo Ernesto, Delphine Gaborit, Peggy Grelat Dupont, Hwanhee Hwang, Sergiu Matis, Michal Mualem, Virgis Puodziunas, Sasa Queliz, Zaratiana Randrianantenaina, Orlando Rodriguez, Mata Sakka, Judith Sánchez Ruíz, Yael Schnell, Corey Scott-Gilbert, Claudia de Serpa Soares, Xuan Shi, Joel Súarez Gómez, Antonios Vais, Niannian Zhou
Описание: Запись постановки «Весна священная» современного хореографа Саши Вальц в Королевском оперном театре в Брюсселе
Доп. информация: Рип скачан из сети
семпл http://multi-up.com/912776
Качество видео: WEBRip
Формат/Контейнер: MKV
Видео кодек: H.264
Аудио кодек: AC3
Видео поток: MPEG4 Video (H264) 1280x720 25.00fps
Аудио поток: Dolby AC3 44100Hz stereo

Mediainfo

Format : Matroska
File size : 502 MiB
Duration : 41mn 22s
Overall bit rate : 1 695 Kbps
Encoded date : UTC 2013-10-13 10:50:30
Writing application : mkvmerge v2.4.2 ('Oh My God') built on Jan 18 2009 17:30:28
Writing library : libebml v0.7.7 + libmatroska v0.8.1
Video
ID : 1
Format : AVC
Format/Info : Advanced Video Codec
Format profile : High@L4.1
Format settings, CABAC : Yes
Format settings, ReFrames : 3 frames
Muxing mode : Container profile=Unknown@4.1
Codec ID : V_MPEG4/ISO/AVC
Duration : 41mn 22s
Bit rate : 1 470 Kbps
Nominal bit rate : 1 600 Kbps
Width : 1 280 pixels
Height : 720 pixels
Display aspect ratio : 16:9
Frame rate mode : Variable
Frame rate : 25.000 fps
Color space : YUV
Chroma subsampling : 4:2:0
Bit depth : 8 bits
Scan type : Progressive
Bits/(Pixel*Frame) : 0.064
Stream size : 435 MiB (87%)
Writing library : x264 core 116 r2019M 9cc407d
Encoding settings : cabac=1 / ref=3 / deblock=1:3:3 / analyse=0x3:0x133 / me=umh / subme=10 / psy=1 / psy_rd=1.00:0.15 / mixed_ref=1 / me_range=16 / chroma_me=1 / trellis=2 / 8x8dct=1 / cqm=0 / deadzone=21,11 / fast_pskip=1 / chroma_qp_offset=-3 / threads=8 / sliced_threads=0 / nr=0 / decimate=1 / interlaced=0 / bluray_compat=0 / constrained_intra=0 / bframes=3 / b_pyramid=1 / b_adapt=2 / b_bias=0 / direct=3 / weightb=1 / open_gop=0 / weightp=2 / keyint=250 / keyint_min=25 / scenecut=40 / intra_refresh=0 / rc_lookahead=40 / rc=cbr / mbtree=1 / bitrate=1600 / ratetol=1.0 / qcomp=0.60 / qpmin=10 / qpmax=51 / qpstep=4 / vbv_maxrate=1600 / vbv_bufsize=1600 / nal_hrd=none / ip_ratio=1.40 / aq=1:1.00
Audio
ID : 2
Format : AC-3
Format/Info : Audio Coding 3
Mode extension : CM (complete main)
Codec ID : A_AC3
Duration : 41mn 22s
Bit rate mode : Constant
Bit rate : 192 Kbps
Channel(s) : 2 channels
Channel positions : Front: L R
Sampling rate : 44.1 KHz
Bit depth : 16 bits
Stream size : 56.8 MiB (11%)

Скриншоты




Показать сообщения:    

Текущее время: 09-Дек 03:05

Часовой пояс: UTC + 3


Вы не можете начинать темы
Вы не можете отвечать на сообщения
Вы не можете редактировать свои сообщения
Вы не можете удалять свои сообщения
Вы не можете голосовать в опросах
Вы не можете прикреплять файлы к сообщениям
Вы не можете скачивать файлы