Дом, который построил Марк [2013, Россия, Капустник, HDTV 1080i]


Статистика раздачи [Обновить пиров]
Размер:  8.43 GB   |    Зарегистрирован:  8 месяцев 28 дней   |    Скачан:  0 раз

Полного источника не было: Никогда

Личеров:  20  [  0 KB/s  ]   Подробная статистика пиров
 
   
 
 
 

[Цитировать]

Дом, который построил Марк
Название театра: Ленком
Страна: Россия
Жанр: Капустник
Год выпуска: 2013
Продолжительность: 01:50:29
Перевод: Не требуется
Язык: Русский
Cубтитры: нет
Оригинальная аудиодорожка: русский
Описание: 13 октября свое 80-летие отмечает величайший режиссер кино и театра, художественный руководитель московского театра "Ленком" - Марк Анатольевич Захаров. Марк Захаров говорит, что не любит юбилеи, но столь примечательная дата, безусловно, не может остаться незамеченной для поклонников творчества Марка Анатольевича, его коллег и актеров, которые хоть единожды с ним работали или работают до сих пор под его руководством. Режиссер руководит театром уже 40 лет, поэтому поздравить его решили здесь же. В гости к юбиляру придут все театры Москвы, а подарком будет "капустник".
Источник: собственный рип
Доп. информация: Релиз -

Рип чистый. Без посторонних надписей. Выкладывается как есть.
Качество: HDTV 1080i
Контейнер: TS
Видео кодек: AVC
Аудио кодек: AC3
Видео: 1920x1080 (16:9) 25.000 fps 10.2 Mbps, 0.197 bit/pixel
Аудио: MPEG Audio 48000Hz stereo 192 Кбит/сек

Скринлист

MI

General
ID : 1 (0x1)
Complete name : D:\Выкладка\Дом, который построил Марк (2013, Театр, Капустник, HDTV 1080i) (MYDIMKA).ts
Format : MPEG-TS
File size : 8.43 GiB
Duration : 1h 50mn
Overall bit rate mode : Variable
Overall bit rate : 10.9 Mbps
Video
ID : 305 (0x131)
Menu ID : 1 (0x1)
Format : AVC
Format/Info : Advanced Video Codec
Format profile : High@L4.0
Format settings, CABAC : Yes
Format settings, ReFrames : 3 frames
Codec ID : 27
Duration : 1h 50mn
Bit rate : 10.2 Mbps
Width : 1 920 pixels
Height : 1 080 pixels
Display aspect ratio : 16:9
Frame rate : 25.000 fps
Standard : Component
Color space : YUV
Chroma subsampling : 4:2:0
Bit depth : 8 bits
Scan type : Interlaced
Scan order : Top Field First
Bits/(Pixel*Frame) : 0.197
Stream size : 7.86 GiB (93%)
Color primaries : BT.709
Transfer characteristics : BT.709
Matrix coefficients : BT.709
Audio
ID : 405 (0x195)
Menu ID : 1 (0x1)
Format : MPEG Audio
Format version : Version 1
Format profile : Layer 2
Codec ID : 3
Duration : 1h 50mn
Bit rate mode : Constant
Bit rate : 192 Kbps
Channel count : 2 channels
Sampling rate : 48.0 KHz
Compression mode : Lossy
Stream size : 152 MiB (2%)
Language : English
[teatrix.ru].t15222.torrent 
Торрент: Зарегистрирован [ 2016-03-14 00:51 ] · 0518D9681681147E6349440423B55C5348F251F6

Скачать .torrent

Скачать

43 KB

Статус: проверено
Скачан: 0 раз
Размер: 8.43 GB
terms.php



Быстрый ответ

Имя:

      
Для отправки сообщений необходимо включить JavaScript
Показать сообщения:    

Текущее время: 11-Дек 01:28

Часовой пояс: UTC + 3


Вы можете начинать темы
Вы можете отвечать на сообщения
Вы не можете редактировать свои сообщения
Вы не можете удалять свои сообщения
Вы не можете голосовать в опросах
Вы не можете прикреплять файлы к сообщениям
Вы можете скачивать файлы