Дом, который построил Марк [2013, Россия, Капустник, DVB]


Статистика раздачи [Обновить пиров]
Размер:  4.69 GB   |    Зарегистрирован:  8 месяцев 21 день   |    Скачан:  0 раз

Полного источника не было: Никогда

 
   
 
 
 

[Цитировать]

Дом, который построил Марк
Название театра: Ленком
Страна: Россия
Жанр: Капустник
Год выпуска: 2013
Продолжительность: 01:50:29
Перевод: Не требуется
Язык: Русский
Cубтитры: нет
Оригинальная аудиодорожка: русский
Описание: 13 октября свое 80-летие отмечает величайший режиссер кино и театра, художественный руководитель московского театра "Ленком" - Марк Анатольевич Захаров. Марк Захаров говорит, что не любит юбилеи, но столь примечательная дата, безусловно, не может остаться незамеченной для поклонников творчества Марка Анатольевича, его коллег и актеров, которые хоть единожды с ним работали или работают до сих пор под его руководством. Режиссер руководит театром уже 40 лет, поэтому поздравить его решили здесь же. В гости к юбиляру придут все театры Москвы, а подарком будет "капустник".
Источник: собственный рип
Доп. информация: Релиз -

Рип чистый. Без посторонних надписей. Выкладывается как есть.
Качество: DVB
Формат: MPG
Видео кодек: MPG2
Аудио кодек: MP2
Видео: 720x576 @ 1024x576 (16:9) 25.00fps 5 808 Kbps, 0.560 bit/pixel
Аудио: MPEG Audio 48000Hz 2 channels 160 Кбит/сек

Скриншоты


Скринлист

MI

General
Complete name : D:\Выкладка\Дом, который построил Марк (2013, Театр, Капустник, DVB) (MYDIMKA).mpg
Format : MPEG-PS
File size : 4.69 GiB
Duration : 1h 50mn
Overall bit rate mode : Variable
Overall bit rate : 6 083 Kbps
Video
ID : 224 (0xE0)
Format : MPEG Video
Format version : Version 2
Format profile : Main@Main
Format settings, BVOP : Yes
Format settings, Matrix : Custom
Format settings, GOP : Variable
Duration : 1h 50mn
Bit rate mode : Variable
Bit rate : 5 802 Kbps
Maximum bit rate : 15.0 Mbps
Width : 720 pixels
Height : 576 pixels
Display aspect ratio : 16:9
Frame rate : 25.000 fps
Standard : PAL
Color space : YUV
Chroma subsampling : 4:2:0
Bit depth : 8 bits
Scan type : Interlaced
Scan order : Top Field First
Compression mode : Lossy
Bits/(Pixel*Frame) : 0.560
Time code of first frame : 00:00:00:00
Time code source : Group of pictures header
Stream size : 4.48 GiB (95%)
Audio
ID : 192 (0xC0)
Format : MPEG Audio
Format version : Version 1
Format profile : Layer 2
Duration : 1h 50mn
Bit rate mode : Constant
Bit rate : 160 Kbps
Channel count : 2 channels
Sampling rate : 48.0 KHz
Compression mode : Lossy
Delay relative to video : -17ms
Stream size : 126 MiB (3%)
[teatrix.ru].t15223.torrent 
Торрент: Зарегистрирован [ 2016-03-14 00:51 ] · 145AF7D36F3548A15E4B66CDE4E6E4C1371DC175

Скачать .torrent

Скачать

24 KB

Статус: проверено
Скачан: 0 раз
Размер: 4.69 GB
terms.php



Быстрый ответ

Имя:

      
Для отправки сообщений необходимо включить JavaScript
Показать сообщения:    

Текущее время: 04-Дек 19:14

Часовой пояс: UTC + 3


Вы можете начинать темы
Вы можете отвечать на сообщения
Вы не можете редактировать свои сообщения
Вы не можете удалять свои сообщения
Вы не можете голосовать в опросах
Вы не можете прикреплять файлы к сообщениям
Вы можете скачивать файлы