Вспоминая Папанова... [1992, Россия, Телепередача, DVB]


Статистика раздачи [Обновить пиров]
Размер:  2.09 GB   |    Зарегистрирован:  8 месяцев 21 день   |    Скачан:  0 раз

Полного источника не было: Никогда

Личеров:  33  [  0 KB/s  ]   Подробная статистика пиров
 
   
 
 
 

[Цитировать]

Вспоминая Папанова...- Страна: Россия
Жанр: телепередача
Год выпуска: 1992
Продолжительность: 00:58:17
Перевод: Не требуется-Описание: Передача, посвященная творчеству Анатолия Дмитриевича Папанова, подготовлена совместно с Центральным Домом актера им. А.А.Яблочкиной к его 70-летию. О работе с актером вспоминают и делятся своими впечатлениями от личных встреч с ним участники передачи: актеры Нина Ургант, Нина Сазонова, Михаил Ульянов, Михаил Державин, режиссер Валентин Плучек, писатель Ион Друцэ, драматург Виктор Розов, кинорежиссер Андрей Смирнов, Надежда Каратаева-Папанова.-Доп. информация: Производство Гл. ред. лит.-худ. программ.-Качество: DVB
Формат: MPEG-PS
Видео: MPEG-2, 720x576@768x576 (4/3), 25 fps, ~4844 Kbps (0.467 bit/pixel)
Аудио: MP2, 48 KHz, 2 ch, 192 Kbps-

MediaInfo

General
Complete name : ...\Вспоминая Папанова... (1992) [DVB].mpg
Format : MPEG-PS
File size : 2.09 GiB
Duration : 58mn 17s
Overall bit rate mode : Variable
Overall bit rate : 5 139 Kbps
Video
ID : 224 (0xE0)
Format : MPEG Video
Format version : Version 2
Format profile : Main@Main
Format settings, BVOP : No
Format settings, Matrix : Custom
Format settings, GOP : M=3, N=36
Duration : 58mn 17s
Bit rate mode : Variable
Bit rate : 4 844 Kbps
Maximum bit rate : 15.0 Mbps
Width : 720 pixels
Height : 576 pixels
Display aspect ratio : 4:3
Frame rate : 25.000 fps
Standard : PAL
Color space : YUV
Chroma subsampling : 4:2:0
Bit depth : 8 bits
Scan type : Interlaced
Scan order : Top Field First
Compression mode : Lossy
Bits/(Pixel*Frame) : 0.467
Time code of first frame : 00:00:00:00
Time code source : Group of pictures header
Stream size : 1.97 GiB (94%)
Audio
ID : 192 (0xC0)
Format : MPEG Audio
Format version : Version 1
Format profile : Layer 2
Duration : 58mn 16s
Bit rate mode : Constant
Bit rate : 192 Kbps
Channel(s) : 2 channels
Sampling rate : 48.0 KHz
Compression mode : Lossy
Stream size : 80.0 MiB (4%)
[teatrix.ru].t15234.torrent 
Торрент: Зарегистрирован [ 2016-03-14 00:51 ] · 9E97CB772C394F5EBDFF065058C6E511CB77C1DC

Скачать .torrent

Скачать

11 KB

Статус: проверено
Скачан: 0 раз
Размер: 2.09 GB
terms.php



Быстрый ответ

Имя:

      
Для отправки сообщений необходимо включить JavaScript
Показать сообщения:    

Текущее время: 04-Дек 13:13

Часовой пояс: UTC + 3


Вы можете начинать темы
Вы можете отвечать на сообщения
Вы не можете редактировать свои сообщения
Вы не можете удалять свои сообщения
Вы не можете голосовать в опросах
Вы не можете прикреплять файлы к сообщениям
Вы можете скачивать файлы