Ты свистни - тебя не заставлю я ждать / Whistle and I'll Come to You (Джонатан Миллер / Jonathan Miller) [1968, Великобритания, Ужасы, DVDRip] Sub Rus + Original Eng


Статистика раздачи [Обновить пиров]
Размер:  500 MB   |    Зарегистрирован:  8 месяцев 21 день   |    Скачан:  0 раз

Полного источника не было: Никогда

 
   
 
 
 

[Цитировать]

Ты свистни - тебя не заставлю я ждать / Whistle and I'll Come to You
Страна: Великобритания
Жанр: Ужасы
Год выпуска: 1968
Продолжительность: 0:41:55
Перевод: Субтитры
Cубтитры: русские
Оригинальная аудиодорожка: английский
Режиссер: Джонатан Миллер / Jonathan Miller
В ролях: Майкл Хордерн, Амброз Когхилл, Джордж Вудбридж, Искадновский
Описание: Фильм снят по мотивам одноименного рассказа М. Р. Джеймса и рассказывает о встрече ученого-рационалиста Паркина со сверхъестественным, с тем, что чванливый профессор не может ни понять, ни принять.
Качество видео: DVDRip
Формат видео: AVI
Видео: 1528 Кбит/с, 608x432, 25fps
Аудио: MP3, 2 ch, 128 Кбит/с
Формат субтитров: softsub (SRT)

MediaInfo

General
Complete name : Whistle and I'll Come to You.avi
Format : AVI
Format/Info : Audio Video Interleave
File size : 500 MiB
Duration : 41mn 55s
Overall bit rate : 1 666 Kbps
Writing application : FairUse Wizard
Writing library : The best and REALLY easy backup tool
Video
ID : 0
Format : MPEG-4 Visual
Format profile : Advanced Simple@L5
Format settings, BVOP : 2
Format settings, QPel : No
Format settings, GMC : No warppoints
Format settings, Matrix : Default (MPEG)
Codec ID : XVID
Codec ID/Hint : XviD
Duration : 41mn 55s
Bit rate : 1 529 Kbps
Width : 608 pixels
Height : 432 pixels
Display aspect ratio : 1.407
Frame rate : 25.000 fps
Color space : YUV
Chroma subsampling : 4:2:0
Bit depth : 8 bits
Scan type : Progressive
Compression mode : Lossy
Bits/(Pixel*Frame) : 0.233
Stream size : 458 MiB (92%)
Writing library : XviD 1.1.0 Beta2 (UTC 2005-04-04)
Audio
ID : 1
Format : MPEG Audio
Format version : Version 1
Format profile : Layer 3
Mode : Joint stereo
Mode extension : MS Stereo
Codec ID : 55
Codec ID/Hint : MP3
Duration : 41mn 55s
Bit rate mode : Constant
Bit rate : 128 Kbps
Channel(s) : 2 channels
Sampling rate : 48.0 KHz
Compression mode : Lossy
Stream size : 38.4 MiB (8%)
Alignment : Aligned on interleaves
Interleave, duration : 40 ms (1.00 video frame)
Interleave, preload duration : 504 ms
Writing library : LAME3.96r
Encoding settings : -m j -V 4 -q 2 -lowpass 17.5 -b 128

Скриншот c названием фильма

Скриншоты

Фрагмент субтитров

1
00:00:06,593 --> 00:00:09,093
Это рассказ о сверхъестественном
2
00:00:09,794 --> 00:00:13,994
Он написан человеком,
посвящавшим свое свободное время
сочинению рассказов о призраках
3
00:00:14,096 --> 00:00:16,096
Автор - М. Р. Джеймс
4
00:00:16,097 --> 00:00:17,397
археолог,
5
00:00:17,398 --> 00:00:18,798
историк средневековья,
6
00:00:18,799 --> 00:00:21,899
специалист по ранней истории Библии
7
00:00:22,500 --> 00:00:23,900
Он был вице-канцлером
8
00:00:23,901 --> 00:00:26,401
Кембриджского университета
во время первой мировой войны
9
00:00:26,402 --> 00:00:31,602
Позже он стал ректором
колледжа в Итоне,
где и скончался в 1936 году
10
00:00:32,303 --> 00:00:35,303
Он хорошо известен благодаря
своим рассказам о призраках,
11
00:00:35,304 --> 00:00:39,104
Эти рассказы обладают особой атмосферой
и интеллектуальной экстравагантностью
12
00:00:39,405 --> 00:00:42,105
Самый мрачный из них называется
13
00:00:42,106 --> 00:00:45,206
"Ты свистни — тебя не заставлю я ждать"
14
00:00:45,207 --> 00:00:50,107
Это история одиночества и страха,
а также моральная история
15
00:00:50,208 --> 00:00:52,608
Она рассказывает об опасности
интеллектуальной гордыни
16
00:00:52,609 --> 00:00:55,709
и показывает, как человеческий разум
может быть низвергнут,
17
00:00:55,710 --> 00:00:59,110
когда он отказывается признавать
те силы внутри себя,
18
00:00:59,111 --> 00:01:01,511
которые он не в состоянии понять
19
00:02:17,212 --> 00:02:18,212
Добрый день, сэр
20
00:02:18,213 --> 00:02:20,013
- Это в гостиницу?
- Да, сэр
21
00:02:25,414 --> 00:02:27,114
- Все в порядке, сэр?
- Спасибо
22
00:03:11,115 --> 00:03:12,115
Сколько?
23
00:03:12,116 --> 00:03:13,116
8 шиллингов, пожалуйста
24
00:03:20,017 --> 00:03:21,917
- Премного благодарен
- Спасибо
[teatrix.ru].t15236.torrent 
Торрент: Зарегистрирован [ 2016-03-14 00:50 ] · 55A3ED3A9FDEF9AA98286EA7B801E52F12DE859A

Скачать .torrent

Скачать

20 KB

Статус: проверено
Скачан: 0 раз
Размер: 500 MB
terms.php



Быстрый ответ

Имя:

      
Для отправки сообщений необходимо включить JavaScript
Показать сообщения:    

Текущее время: 04-Дек 06:48

Часовой пояс: UTC + 3


Вы можете начинать темы
Вы можете отвечать на сообщения
Вы не можете редактировать свои сообщения
Вы не можете удалять свои сообщения
Вы не можете голосовать в опросах
Вы не можете прикреплять файлы к сообщениям
Вы можете скачивать файлы