Verdi - I vespri siciliani/Les vepres siciliennes / Верди - Сицилийская вечерня ( Antonio Pappano, Lianna Haroutounian, Bryan Hymel, Erwin Schrott ) [2013, Opera, HDTVRip-AVC][Eng.Sub's]


 

[Цитировать]

Verdi - Les vêpres siciliennes / Верди - Сицилийская вечерня
Год выпуска: 2013
Жанр: Opera
Продолжительность: 03:07:43
Язык: Французский
Субтитры: английские внешние (sub+idx)
Режиссер: Stefan Herheim
Дирижер: Antonio Pappano
Исполнители:
Helene - Lianna Haroutounian
Henri - Bryan Hymel
Procida - Erwin Schrott
Guy de Montfort - Michael Volle
Ninetta - Michelle Daly
Thibault - Neal Cooper
Daniéli - Nicolas Darmanin
Mainfroid - Jung Soo Yun
Robert - Jihoon Kim
Le Sire de Béthune - Jean Teitgen
Le Comte de Vaudemont - Jeremy White
Royal Opera Chorus
Orchestra of the Royal Opera House
Источник: рип раздачи http://teatrix.ru/viewtopic.php?t=4582542 Спасибо, Akacha и Mauricelugher !
Качество видео: HDTVRip-AVC
Формат/Контейнер: MKV
Видео кодек: H.264
Аудио кодек: MP2
Видео поток: 960x536 25fps 1 796 Kbps
Аудио поток: 48000Hz 2ch 256 Kbps

MI

Format : Matroska
Format version : Version 2
File size : 1.07 GiB
Duration : 1h 14mn
Overall bit rate : 2 054 Kbps
Encoded date : UTC 2013-11-14 19:38:23
Writing application : mkvmerge v5.8.0 ('No Sleep / Pillow') built on Sep 2 2012 15:37:04
Writing library : libebml v1.2.3 + libmatroska v1.3.0
Video
ID : 1
Format : AVC
Format/Info : Advanced Video Codec
Format profile : High@L3.1
Format settings, CABAC : Yes
Format settings, ReFrames : 8 frames
Codec ID : V_MPEG4/ISO/AVC
Duration : 1h 14mn
Bit rate : 1 796 Kbps
Width : 960 pixels
Height : 536 pixels
Display aspect ratio : 16:9
Frame rate mode : Constant
Frame rate : 25.000 fps
Color space : YUV
Chroma subsampling : 4:2:0
Bit depth : 8 bits
Scan type : Progressive
Bits/(Pixel*Frame) : 0.140
Stream size : 936 MiB (86%)
Writing library : x264 core 125 r2208 d9d2288
Encoding settings : cabac=1 / ref=8 / deblock=1:-2:-1 / analyse=0x3:0x133 / me=umh / subme=9 / psy=1 / psy_rd=1.00:0.20 / mixed_ref=1 / me_range=24 / chroma_me=1 / trellis=2 / 8x8dct=1 / cqm=0 / deadzone=21,11 / fast_pskip=1 / chroma_qp_offset=-3 / threads=6 / lookahead_threads=1 / sliced_threads=0 / nr=0 / decimate=0 / interlaced=0 / bluray_compat=0 / constrained_intra=0 / bframes=3 / b_pyramid=2 / b_adapt=2 / b_bias=0 / direct=3 / weightb=1 / open_gop=0 / weightp=2 / keyint=250 / keyint_min=25 / scenecut=40 / intra_refresh=0 / rc_lookahead=60 / rc=2pass / mbtree=1 / bitrate=1796 / ratetol=1.0 / qcomp=0.60 / qpmin=0 / qpmax=69 / qpstep=4 / cplxblur=20.0 / qblur=0.5 / ip_ratio=1.40 / aq=1:1.00
Default : Yes
Forced : No
Audio
ID : 2
Format : MPEG Audio
Format version : Version 1
Format profile : Layer 2
Codec ID : A_MPEG/L2
Codec ID/Hint : MP2
Duration : 1h 14mn
Bit rate mode : Constant
Bit rate : 256 Kbps
Channel(s) : 2 channels
Sampling rate : 48.0 KHz
Compression mode : Lossy
Stream size : 136 MiB (12%)
Default : Yes
Forced : No

Скриншоты




Показать сообщения:    

Текущее время: 03-Дек 12:37

Часовой пояс: UTC + 3


Вы не можете начинать темы
Вы не можете отвечать на сообщения
Вы не можете редактировать свои сообщения
Вы не можете удалять свои сообщения
Вы не можете голосовать в опросах
Вы не можете прикреплять файлы к сообщениям
Вы не можете скачивать файлы