Книга мертвых / Livre des morts, Le (Ален Эскаль / Alain Escalle) [2013, Франция, короткометражка, драма, SATRip] + Sub Fre


Статистика раздачи [Обновить пиров]
Размер:  223 MB   |    Зарегистрирован:  8 месяцев 28 дней   |    Скачан:  0 раз

Полного источника не было: Никогда

 
   
 
 
 

[Цитировать]

Книга мертвых / Livre des morts, Le
Страна: Франция
Жанр: короткометражка, драма
Год выпуска: 2013
Продолжительность: 00:33:19
Перевод: Не требуется
Cубтитры: французские (хардсабы)
Режиссер: Ален Эскаль / Alain Escalle
В ролях: Люди и животные
Описание: Новая работа выдающегося режиссера, экспериментатора в области визуального искусства Алена Эскаля. Запись с канала Арте. Фильм снят на русском языке (французский перевод идет субтитрами). Русская озвучка осуществлена актерами, живущими во Франции - Габриелем Левшиным и Олегом Мокшановым.
Главный герой ленты, Михаил, борется со своими демонами в окружении призраков, запертых на страницах книги ...

SATRip от : Твид
Доп. информация: Любезно предоставлено клубом Fenix
Сэмпл: http://multi-up.com/924004
Качество видео: SATRip
Формат видео: AVI
Видео: XviD, 802 kb/s, 640x480, 25 fps, 0.104 bits/pixel
Аудио: 0x0055(MP3) ID'd as MPEG-1 Layer 3, 128 kb/s (2/ch, stereo) CBR, 48000 Hz - Русский

MediaInfo

Общее
Полное имя : D:\FILMS\Kniga mertvyh.SAT-rip.by.Твид.fenixclub.avi
Формат : AVI
Формат/Информация : Audio Video Interleave
Размер файла : 223 Мбайт
Продолжительность : 33 м.
Общий поток : 937 Кбит/сек
Видео
Идентификатор : 0
Формат : MPEG-4 Visual
Профиль формата : Advanced Simple@L5
Параметр BVOP формата : 2
Параметр QPel формата : Нет
Параметр GMC формата : Без точки перехода
Параметр матрицы формата : Default (H.263)
Идентификатор кодека : XVID
Идентификатор кодека/Подсказка : XviD
Продолжительность : 33 м.
Битрейт : 799 Кбит/сек
Ширина : 640 пикселей
Высота : 480 пикселей
Соотношение сторон : 4:3
Частота кадров : 25,000 кадров/сек
Цветовое пространство : YUV
Субдискретизация насыщенности : 4:2:0
Битовая глубина : 8 бит
Тип развёртки : Прогрессивная
Метод сжатия : С потерями
Бит/(Пиксели*Кадры) : 0.104
Размер потока : 190 Мбайт (85%)
Библиотека кодирования : XviD 1.1.2 (UTC 2006-11-01)
Аудио
Идентификатор : 1
Формат : MPEG Audio
Версия формата : Version 1
Профиль формата : Layer 3
Режим : Joint stereo
Расширение режима : MS Stereo
Идентификатор кодека : 55
Идентификатор кодека/Подсказка : MP3
Продолжительность : 33 м.
Вид битрейта : Постоянный
Битрейт : 128 Кбит/сек
Каналы : 2 канала
Частота : 48,0 КГц
Метод сжатия : С потерями
Размер потока : 30,5 Мбайт (14%)
Выравнивание : Разделение по промежуткам
Продолжительность промежутка : 40 мс. (1,00 видеокадр)
Время предзагрузки промежутка : 500 мс.

Скриншот c названием фильма

Скриншоты

[teatrix.ru].t15243.torrent 
Торрент: Зарегистрирован [ 2016-03-14 00:50 ] · 206B7349A8993F057D5FFED6397E3DD37C8A0522

Скачать .torrent

Скачать

18 KB

Статус: проверено
Скачан: 0 раз
Размер: 223 MB
terms.php



Быстрый ответ

Имя:

      
Для отправки сообщений необходимо включить JavaScript
Показать сообщения:    

Текущее время: 11-Дек 11:05

Часовой пояс: UTC + 3


Вы можете начинать темы
Вы можете отвечать на сообщения
Вы не можете редактировать свои сообщения
Вы не можете удалять свои сообщения
Вы не можете голосовать в опросах
Вы не можете прикреплять файлы к сообщениям
Вы можете скачивать файлы