Имре Кальман - Марица (Ричард Освальд, Артур Гутман, Доротея Вик, Хьюберт Маришка, Шарлотта Андер) / Emmerich Kalman - Grafin Mariza (Richard Oswald, Artur Guttmann, Dorothea Wieck, Hubert Marischka, Charlotte Ander) [1932, operetta, DVBRip]


 

[Цитировать]

Имре Кальман "Марица"
Gräfin Mariza
Год выпуска: 1932
Лейбл: Roto Film, G.P. Film GmbH
Страна-производитель: Германия
Жанр: operetta
Продолжительность: 01:22:00
Язык: немецкий
Перевод: отсутствует
Субтитры: нет
http://www.imdb.com/title/tt0022965/
Режиссёр: Ричард Освальд (Richard Oswald)
Исполнители: Доротея Вик (Dorothea Wieck), Хьюберт Маришка (Hubert Marischka), Шарлотта Андер (Charlotte Ander)
Музыка: Имре Кальман (Emmerich Kálmán)
Либретто: Юлиус Браммер (Julius Brammer), Альфред Грюнвальд (Alfred Grünwald)
Тексты: Фриц Фридман-Фридрих (Fritz Friedmann-Frederich)
Дирижёр: Артур Гутман (Artur Guttmann)-Описание: Обедневший граф Тассило (Хьюберт Маришка) работает инкогнито в имении графини Марицы (Доротея Вик). Однажды графиня приезжает туда отдохнуть. Для того, чтобы избавиться от своих бесчисленных поклонников, она объявляет о своей помолвке с выдуманным женихом. Постепенно, Тассило и Марица сближаются...-Качество видео: DVBRip
Формат/Контейнер: AVI
Видео кодек: XviD
Аудио кодек: MP2
Видео поток: MPEG-4 Visual, 512x384 (4:3), 25 кадров/сек, 701 Кбит/сек
Аудио поток: MPEG Audio v.2 Layer 3, 22,05 КГц, 1 канал, 48 Кбит/сек
Сэмпл: http://multi-up.com/925860

Скриншоты

MediaInfo 0.7.64

Общее
Полное имя : Grafin_Mariza.avi
Формат : AVI
Формат/Информация : Audio Video Interleave
Размер файла : 449 Мбайт
Продолжительность : 1 ч. 22 м.
Общий поток : 759 Кбит/сек
Библиотека кодирования : VirtualDub build 35453/release
Видео
Идентификатор : 0
Формат : MPEG-4 Visual
Профиль формата : Advanced Simple@L3
Параметр BVOP формата : 1
Параметр QPel формата : Нет
Параметр GMC формата : Без точки перехода
Параметр матрицы формата : Default (H.263)
Идентификатор кодека : DX50
Идентификатор кодека/Подсказка : DivX 5
Продолжительность : 1 ч. 22 м.
Битрейт : 701 Кбит/сек
Ширина : 512 пикселей
Высота : 384 пикселя
Соотношение сторон : 4:3
Частота кадров : 25,000 кадров/сек
Цветовое пространство : YUV
Субдискретизация насыщенности : 4:2:0
Битовая глубина : 8 бит
Тип развёртки : Прогрессивная
Метод сжатия : С потерями
Бит/(Пиксели*Кадры) : 0.143
Размер потока : 415 Мбайт (92%)
Библиотека кодирования : XviD 64
Аудио
Идентификатор : 1
Формат : MPEG Audio
Версия формата : Version 2
Профиль формата : Layer 3
Идентификатор кодека : 55
Идентификатор кодека/Подсказка : MP3
Продолжительность : 1 ч. 22 м.
Вид битрейта : Постоянный
Битрейт : 48,0 Кбит/сек
Каналы : 1 канал
Частота : 22,05 КГц
Метод сжатия : С потерями
Размер потока : 28,3 Мбайт (6%)
Выравнивание : Разделение по промежуткам
Продолжительность промежутка : 40 мс. (1,00 видеокадр)
Время предзагрузки промежутка : 502 мс.



Показать сообщения:    

Текущее время: 06-Дек 22:55

Часовой пояс: UTC + 3


Вы не можете начинать темы
Вы не можете отвечать на сообщения
Вы не можете редактировать свои сообщения
Вы не можете удалять свои сообщения
Вы не можете голосовать в опросах
Вы не можете прикреплять файлы к сообщениям
Вы не можете скачивать файлы