Иоганн Штраус - Летучая Мышь (Кири Те Канава, Герман Прей) / Johann Strauss II - Die Fledermaus (Kiri Te Kanawa, Hermann Prey) дир. Пласидо Доминго / Placido Domingo (RV 503) [1984, Operetta, DVDRip-AVC][Русские субтитры (Kosaruso) + Eng, Ger. Sub's]


 

[Цитировать]

-Королевский оперный театр в Ковент-Гарден представляет
«ЛЕТУЧАЯ ~ МЫШЬ»
Романтическая оперетта
ИОГАННА ~ ШТРАУСА-сына
-- Год выпуска/записи: 2003/1984
•••
Лейбл: NVC ARTS KULTUR
Страна-производитель: EU
Жанр: Operetta
Продолжительность: 161 min.
Язык: Немецкий
Авторский перевод: Kosaruso
Субтитры: РУССКИЕ,
English, German в составе контейнера
•••
Качество видео: DVDRip-AVC
Исходник: DVD9 [Спасибо, Kosaruso!]
Формат/Контейнер: MKV
Видео кодек: H.264
Аудио кодек: AC3
Видео поток: 704x476@704x522, 1500 kbps, 29,970 fps.
Аудио поток: Немецкий, 448 kbps, 48,0 KHz, 2 ch (оригинальный)
•••
Художник-постановщик: ДЖУЛИЯ ТРЕВЕЛЬЯН ОМАН
Julia Trevelyan Oman
Хореографы: ФРЕДЕРИК АШТОН и ДЭВИД ДРЮ
Frederick Ashton & David Drew
Режиссёр видео записи: ПОЛ ХАРДИНГ
Paul Harding
---From the Royal Opera Hause Covent Garden
A Romantic Operetta by
JOHANN Johann Strauß STRAUSS II
October 25, 1825 – June 3, 1899
«Die FLEDERMAUS (RV 503)»--Оперетта в трёх действиях.
Либретто КАРЛА ХАФФНЕРА и РИХАРДА ЖЕНЕ по водевилю А.Мельяка и Л.Галеви
«Бал в сочельник, или Часы с боем».
Первое исполнение:
Вена, «Театр Ан дер Вин» (Театр на реке Вена), 5 апреля 1874 г.
•••
Пригород Вены в последней четверти XIX века...

Действующие лица и исполнители

•••
АДЕЛЬ, горничная Розалинды - ХИЛЬДЕГАРД ХАЙХЕЛЕAdele - Hildegard Heichele
РОЗАЛИНДА, супруга Габриеля фон Айзенштайна - КИРИ ТЕ КАНАВА
Rosalinde - Kiri Te Kanawa
АЛЬФРЕД, учитель пения - ДЕННИС О'НИЛЛ
Alfred - Dennis O'Neill
ГАБРИЭЛЬ фон АЙЗЕНШТАЙН, рантье - ГЕРМАН ПРЕЙ
Eisenstein - Hermann Prey
Доктор БЛИНД, адвокат - ПОЛ КРУК
Dr. Blind - Paul Crook
Доктор ФАЛЬКЕ, нотариус - БЕНДЖАМИН ЛАКСОН
Dr. Falk - Benjamin Luxon
ФРАНК, директор тюрьмы - МАЙКЛ ЛАНГДОН
Colonel Frank - Michael Langdon
ИДА, сестра Адели - ИНГРИД БАЙЕР
Ida - Ingrid Baier
Князь ОРЛОВСКИЙ - ДОРИС СОФФЕЛ
Prince Orlofsky - Doris Soffel
ИВАН, слуга князя Орловского - РИЧАРД ХЭЗЕЛЛ
Yvan - Richard Hazell
ФРОШ, тюремщик - ЙОЗЕФ МАЙНРАД
Frosch - Josef Meinrad
•••
ХОР и ОРКЕСТР
КОРОЛЕВСКОГО ОПЕРНОГО театра КОВЕНТ-ГАРДЕН

Orchestra & Chorus of the Royal Opera Covent Garden
Дирижёр: ПЛАСИДО ДОМИНГО
Placido Domingo
Хормейстер: НИНА УОЛКЕР
Nina Walker

Скриншоты


MediaInfo

-

x264 2nd pass log

avs [info]: 704x476p 4165:4576 @ 30000/1001 fps (cfr)
x264 [info]: using SAR=4165/4576
x264 [info]: using cpu capabilities: MMX2 SSE2Fast SSSE3 Cache64
x264 [info]: profile High, level 3.0
x264 [info]: frame I:1783 Avg QP:19.62 size: 36690
x264 [info]: frame P:126649 Avg QP:21.96 size: 11907
x264 [info]: frame B:189224 Avg QP:25.27 size: 2189
x264 [info]: consecutive B-frames: 3.3% 40.2% 35.0% 21.4%
x264 [info]: mb I I16..4: 3.1% 76.1% 20.8%
x264 [info]: mb P I16..4: 0.7% 4.4% 0.8% P16..4: 47.6% 25.1% 14.7% 0.0% 0.0% skip: 6.7%
x264 [info]: mb B I16..4: 0.0% 0.2% 0.0% B16..8: 37.0% 3.9% 0.9% direct: 3.6% skip:54.5% L0:32.4% L1:57.8% BI: 9.8%
x264 [info]: 8x8 transform intra:74.8% inter:70.8%
x264 [info]: coded y,uvDC,uvAC intra: 80.7% 90.6% 54.9% inter: 25.6% 41.0% 3.5%
x264 [info]: i16 v,h,dc,p: 41% 20% 9% 30%
x264 [info]: i8 v,h,dc,ddl,ddr,vr,hd,vl,hu: 25% 15% 14% 5% 8% 10% 8% 9% 8%
x264 [info]: i4 v,h,dc,ddl,ddr,vr,hd,vl,hu: 25% 18% 9% 5% 9% 10% 10% 7% 7%
x264 [info]: i8c dc,h,v,p: 49% 16% 25% 11%
x264 [info]: Weighted P-Frames: Y:2.4% UV:0.7%
x264 [info]: ref P L0: 58.7% 17.1% 18.3% 5.8% 0.1%
x264 [info]: ref B L0: 85.9% 13.0% 1.1%
x264 [info]: ref B L1: 94.9% 5.1%
x264 [info]: kb/s:1500.13
encoded 317656 frames, 17.31 fps, 1500.13 kb/s
Final statistics
-Общее
Уникальный идентификатор : 205028561785289819053766138545061622917 (0x9A3F108D89A6505DA01EE86FDDB5F485)
Полное имя : D:\Die Fledermaus (Te Kanawa, Prey) 1984.mkv
Формат : Matroska
Версия формата : Version 2
Размер файла : 2,41 Гбайт
Продолжительность : 2 ч. 56 м.
Общий поток : 1950 Кбит/сек
Дата кодирования : UTC 2013-11-24 12:43:39
Программа кодирования : mkvmerge v4.9.1 ('Ich will') сборка от Jul 11 2011 23:53:15
Библиотека кодирования : libebml v1.2.1 + libmatroska v1.1.1
Видео
Идентификатор : 1
Формат : AVC
Формат/Информация : Advanced Video Codec
Профиль формата : High@L3.0
Параметр CABAC формата : Да
Параметр ReFrames формата : 4 кадра
Режим смешивания : Header stripping
Идентификатор кодека : V_MPEG4/ISO/AVC
Продолжительность : 2 ч. 56 м.
Битрейт : 1500 Кбит/сек
Ширина : 704 пикселя
Высота : 476 пикселей
Соотношение сторон : 4:3
Соотношение сторон в оригинале : 4:3
Частота кадров : 29,970 кадров/сек
Цветовое пространство : YUV
Субдискретизация насыщенности : 4:2:0
Битовая глубина : 8 бит
Тип развёртки : Прогрессивная
Бит/(Пиксели*Кадры) : 0.149
Размер потока : 1,80 Гбайт (75%)
Библиотека кодирования : x264 core 133 r2334 a3ac64b
Настройки программы : cabac=1 / ref=3 / deblock=1:0:0 / analyse=0x3:0x113 / me=hex / subme=7 / psy=1 / psy_rd=1.00:0.00 / mixed_ref=1 / me_range=16 / chroma_me=1 / trellis=1 / 8x8dct=1 / cqm=0 / deadzone=21,11 / fast_pskip=1 / chroma_qp_offset=-2 / threads=3 / lookahead_threads=1 / sliced_threads=0 / nr=0 / decimate=1 / interlaced=0 / bluray_compat=0 / constrained_intra=0 / bframes=3 / b_pyramid=2 / b_adapt=1 / b_bias=0 / direct=1 / weightb=1 / open_gop=0 / weightp=2 / keyint=300 / keyint_min=29 / scenecut=40 / intra_refresh=0 / rc_lookahead=40 / rc=2pass / mbtree=1 / bitrate=1500 / ratetol=1.0 / qcomp=0.60 / qpmin=10 / qpmax=51 / qpstep=4 / cplxblur=20.0 / qblur=0.5 / ip_ratio=1.40 / aq=1:1.00
Язык : English
Аудио
Идентификатор : 2
Формат : AC-3
Формат/Информация : Audio Coding 3
Расширение режима : CM (complete main)
Режим смешивания : Header stripping
Идентификатор кодека : A_AC3
Продолжительность : 2 ч. 56 м.
Вид битрейта : Постоянный
Битрейт : 448 Кбит/сек
Каналы : 2 канала
Расположение каналов : Front: L R
Частота : 48,0 КГц
Битовая глубина : 16 бит
Метод сжатия : С потерями
Размер потока : 566 Мбайт (23%)
Текст #1
Идентификатор : 3
Формат : UTF-8
Идентификатор кодека : S_TEXT/UTF8
Идентификатор кодека/Информация : UTF-8 Plain Text
Язык : Russian
Текст #2
Идентификатор : 4
Формат : UTF-8
Идентификатор кодека : S_TEXT/UTF8
Идентификатор кодека/Информация : UTF-8 Plain Text
Язык : English
Текст #3
Идентификатор : 5
Формат : UTF-8
Идентификатор кодека : S_TEXT/UTF8
Идентификатор кодека/Информация : UTF-8 Plain Text
Язык : German



Показать сообщения:    

Текущее время: 05-Дек 03:31

Часовой пояс: UTC + 3


Вы не можете начинать темы
Вы не можете отвечать на сообщения
Вы не можете редактировать свои сообщения
Вы не можете удалять свои сообщения
Вы не можете голосовать в опросах
Вы не можете прикреплять файлы к сообщениям
Вы не можете скачивать файлы