Вот дерьмо! / Oh Merde! (Алеша Итович / Aliocha Itovich, Гийом Дюкро / Guillaume Ducreux) [2012, Франция, комедия, черный юмор, сюрреализм, короткий метр, DVB] Original (Fre) + Sub (rus)


Статистика раздачи [Обновить пиров]
Размер:  248 MB   |    Зарегистрирован:  8 месяцев 22 дня   |    Скачан:  0 раз

Полного источника не было: Никогда

 
   
 
 
 

[Цитировать]

Вот дерьмо!
Oh Merde!- Страна: Франция
Жанр: комедия, черный юмор, сюрреализм, короткий метр
Год выпуска: 2012
Продолжительность: 00:08:24
Перевод: Субтитры (ralf124c41+)
Cубтитры: русские
Оригинальная аудиодорожка: французскийРежиссер: Алеша Итович / Aliocha Itovich, Гийом Дюкро / Guillaume Ducreux
В ролях: Алеша Итович / Aliocha Itovich (Un homme), Жюли де Бона / Julie de Bona (Un femme)
Описание: Забавная короткометражка о том, что беда не приходит одна…
Оливера бросила девушка. Он опаздывает на важное собеседование, которое может изменить всю его жизнь. У него сломалась машина... Что еще может произойти в этой череде невезений?..
Доп. информация: Запись со спутника (телеканал TV5MONDE).
Номинация на лучший короткометражный фильм Orange cinéma séries - Festival International du Film de Comédie de l'Alpe d'Huez 2012. Участник Talents Cannes Adami 2012.
Сэмпл: http://multi-up.com/927883
Качество видео: DVB
Формат видео: MPEG-PS (См. при проблемах с просмотром видео)
Видео: MPEG Video 2, 720x576@1024x576 (16:9), 25 fps, ~3836 kbps avg, 0.370 bit/pixel
Аудио: Французский (48 kHz, MPEG Audio 2, 2 ch, ~192.00 kbps avg)
Формат субтитров: softsub (SRT)

Субтитры

1
00:00:04,606 --> 00:00:08,651
Оливер,
уже какое-то время между нами
2
00:00:08,752 --> 00:00:10,107
всё довольно сложно.
3
00:00:10,208 --> 00:00:12,782
Несмотря на мои попытки,
ничего не получается.
4
00:00:12,883 --> 00:00:17,825
Думаю, что разговоры излишни.
5
00:00:17,926 --> 00:00:24,207
Ты оторван от жизни
и живешь в выдуманном мире.
6
00:00:24,308 --> 00:00:31,093
Я всё решила, и мама меня одобрила.
7
00:00:31,194 --> 00:00:36,028
Между нами всё кончено!
И нет никаких обязательств...
8
00:00:36,129 --> 00:00:40,088
ВОТ ДЕРЬМО!
9
00:01:41,047 --> 00:01:42,378
Вот дерьмо!
10
00:02:40,662 --> 00:02:41,953
Вот дерьмо!
11
00:03:22,528 --> 00:03:24,189
В 11:30
первое собеседование
12
00:03:24,290 --> 00:03:26,024
Общество "Вера в будущее"
тел. 22
13
00:05:08,593 --> 00:05:10,315
Вот дерьмо!
14
00:05:19,373 --> 00:05:20,603
Вот дерьмо!

MediaInfo

Полное имя                               : H:\My Torrents\[apreder]MINI_MOVIE_008\[apreder]MM_Oh_Merde(2011)DVB.mpg
Формат : MPEG-PS
Размер файла : 248 Мбайт
Продолжительность : 8 м. 25 с.
Режим общего битрейта : Переменный
Общий поток : 4110 Кбит/сек
Видео
Идентификатор : 224 (0xE0)
Формат : MPEG Video
Версия формата : Version 2
Профиль формата : Main@Main
Параметр BVOP формата : Да
Параметр матрицы формата : Выборочная
Параметр GOP формата : M=3, N=24
Продолжительность : 8 м. 25 с.
Вид битрейта : Переменный
Битрейт : 3836 Кбит/сек
Ширина : 720 пикселей
Высота : 576 пикселей
Соотношение сторон : 16:9
Частота кадров : 25,000 кадров/сек
Стандарт вещания : PAL
Цветовое пространство : YUV
Субдискретизация насыщенности : 4:2:0
Битовая глубина : 8 бит
Метод сжатия : С потерями
Бит/(Пиксели*Кадры) : 0.370
Временной код первого кадра : 00:00:00:00
Оригинал временного кода : Group of pictures header
Размер потока : 231 Мбайт (93%)
Аудио
Идентификатор : 192 (0xC0)
Формат : MPEG Audio
Версия формата : Version 1
Профиль формата : Layer 2
Продолжительность : 8 м. 25 с.
Вид битрейта : Постоянный
Битрейт : 192 Кбит/сек
Каналы : 2 канала
Частота : 48,0 КГц
Метод сжатия : С потерями
Размер потока : 11,6 Мбайт (5%)

Скриншот c названием фильма

Скриншоты

Резервные скриншоты

-1'074/1'056√
[teatrix.ru].t15252.torrent 
Торрент: Зарегистрирован [ 2016-03-14 00:50 ] · AD58569B679D69CB910140F1BC0E8C42997F4C91

Скачать .torrent

Скачать

20 KB

Статус: проверено
Скачан: 0 раз
Размер: 248 MB
terms.php



Быстрый ответ

Имя:

      
Для отправки сообщений необходимо включить JavaScript
Показать сообщения:    

Текущее время: 05-Дек 19:40

Часовой пояс: UTC + 3


Вы можете начинать темы
Вы можете отвечать на сообщения
Вы не можете редактировать свои сообщения
Вы не можете удалять свои сообщения
Вы не можете голосовать в опросах
Вы не можете прикреплять файлы к сообщениям
Вы можете скачивать файлы